<?xml version="1.0" standalone="no"?>
<!DOCTYPE svg PUBLIC "-//W3C//DTD SVG 1.1//EN" "http://www.w3.org/Graphics/SVG/1.1/DTD/svg11.dtd" >
<svg xmlns="http://www.w3.org/2000/svg">
<metadata>Generated by IcoMoon</metadata>
<defs>
<font id="stmicons" horiz-adv-x="1024">
<font-face units-per-em="1024" ascent="960" descent="-64" />
<missing-glyph horiz-adv-x="1024" />
<glyph unicode="&#x20;" horiz-adv-x="512" d="" />
<glyph unicode="&#xe618;" glyph-name="quote" horiz-adv-x="1184" d="M511.448 927.642c-15.857 5.793-33.353 10.357-52.487 13.751-19.163 3.306-38.736 5.003-58.748 5.003s-39.175-1.697-57.49-5.003c-18.344-3.365-33.353-9.157-44.997-17.496-46.694-33.382-89.615-72.967-128.761-118.784-39.175-45.846-67.935-97.924-86.25-156.233-15.009-48.362-27.502-92.511-37.508-132.506s-18.344-77.941-24.986-113.752c-6.7-35.869-11.264-70.861-13.751-105.004-2.487-34.202-3.745-68.754-3.745-103.746 0-84.992 19.134-144.998 57.49-179.99 38.327-35.021 92.511-52.517 162.494-52.517 13.312 0 27.063 0.41 41.253 1.258 14.131 0.79 34.553 7.899 61.235 21.27 15.009 10.006 31.247 27.063 48.742 51.229 17.496 24.137 33.324 50.82 47.514 79.989 14.131 29.14 26.244 58.309 36.25 87.508 10.006 29.14 15.009 54.565 15.009 76.244 0 61.616-45.846 118.316-137.509 170.013 10.006 74.986 31.656 149.124 65.009 222.471 33.324 73.318 81.657 135.841 144.998 187.509 3.306 5.003 6.641 8.748 10.006 11.235 3.306 2.516 5.003 5.413 5.003 8.777 1.638 10.006-2.107 19.105-11.264 27.472-9.157 8.338-21.68 15.419-37.508 21.299zM1163.97 906.372c-9.157 8.309-21.68 15.389-37.508 21.27-15.857 5.793-33.382 10.357-52.487 13.751-19.163 3.306-38.766 4.974-58.778 4.974s-39.614-1.697-58.748-5.003c-19.163-3.365-33.733-9.157-43.739-17.496-46.694-33.382-89.615-72.938-128.761-118.784s-67.906-97.924-86.221-156.233c-24.986-79.989-44.997-156.672-60.006-229.99-15.009-73.377-22.528-148.363-22.528-224.987 0-84.992 19.134-144.998 57.52-179.99 38.327-35.021 92.482-52.517 162.494-52.517 13.312 0 27.502 0.41 42.511 1.258 15.009 0.79 34.992 7.899 60.006 21.27 15.009 10.006 31.247 27.063 48.742 51.229 17.525 24.137 33.763 50.82 48.742 79.989 15.038 29.14 27.502 58.309 37.508 87.508 10.006 29.14 15.009 54.565 15.009 76.244 0 60.006-46.694 116.619-139.995 170.013 11.644 74.986 34.143 149.124 67.496 222.471 33.324 73.318 80.837 135.841 142.512 187.509 3.306 5.003 7.080 8.748 11.264 11.235 4.125 2.516 6.232 5.413 6.232 8.777 1.609 10.006-2.136 19.134-11.264 27.502z" />
<glyph unicode="&#xe619;" glyph-name="smile" horiz-adv-x="4337" d="M4108.047 721.348c-1173.926-832.813-2792.749-754.387-3876.683 198.234-58.91 51.2-147.215 44.333-197.752-15.782-50.176-60.055-43.43-150.167 15.48-201.608 1014.362-837.331 2491.272-1016.772 3640.561-367.917 177.513 100.171 428.815 277.504 561.995 432.008l85.293 115.531c-252.145-167.936 14.818 12.288-228.894-160.467z" />
<glyph unicode="&#xe61a;" glyph-name="bottle" horiz-adv-x="755" d="M579.979 407.166h-405.576c-29.93 0-54.164-24.324-54.164-54.29v-166.175c0-30.001 24.253-54.29 54.164-54.29h405.576c29.93 0 54.2 24.307 54.2 54.29v166.175c0 29.965-24.271 54.29-54.2 54.29zM754.365 249.182c-0.018 96.651-0.018 196.77-0.018 220.753 0 60.254-20.031 79.692-52.745 106.406l-0.701 0.557c-36.577 29.894-66.794 53.589-95.088 74.626-1.886 1.401-6.342 5.174-6.342 9.36v125.934h28.924v72.758h-0.072c-0.144 55.494-45.056 100.442-100.46 100.442h-301.451c-55.476 0-100.478-45.11-100.478-100.729 0.018 0 0.036 0 0.054 0v-72.47h28.888v-125.665c0-4.186-4.437-7.94-6.342-9.36-28.277-21.019-58.476-44.733-95.088-74.626l-0.683-0.557c-32.696-26.696-52.745-46.134-52.745-106.406 0-24.001-0.018-124.102-0.036-220.771 0.036-90.22 0.018-177.421 0.018-196.931 0-57.146 43.367-116.233 115.928-116.233h263.527c0 0 234.047-0.287 259-0.287 72.578 0 115.928 59.105 115.928 116.251l-0.018 196.949zM638.473 8.973c-24.953 0-258.928 0.269-258.964 0.269h-263.563c-31.672 0-43.17 25.869-43.17 43.277 0 19.492 0.018 106.694 0.036 196.895 0 96.669 0.018 196.788 0.018 220.789 0 28.672 0.97 29.462 25.941 49.835l0.683 0.557c35.714 29.193 65.105 52.242 92.447 72.578 22.744 16.887 35.768 41.661 35.768 67.979v125.665h299.044v-125.952c0-26.301 13.043-51.074 35.768-67.961 27.361-20.336 56.751-43.403 92.447-72.578l0.701-0.557c24.953-20.39 25.923-21.181 25.923-49.835 0-23.983 0.018-124.102 0.036-220.771l0.018-196.913c0.018-17.408-11.462-43.277-43.134-43.277z" />
<glyph unicode="&#xe61b;" glyph-name="leaf" horiz-adv-x="1306" d="M529.655 500.966c-7.768-13.171 115.783-544.203 111.086-529.832-196.608 598.228-614.118 629.407-614.118 629.407s106.284-271.113 255.859-452.679c121.15-146.997 176.552-211.862 176.552-211.862l219.736 0.106 600.17 1018.033c0 0-524.676-72.139-749.286-453.173z" />
<glyph unicode="&#xe61c;" glyph-name="apple" horiz-adv-x="1078" d="M977.219 670.37c-70.791 76.746-151.094 115.658-238.7 115.658-55.080 0-103.774-15.683-141.905-31.151 13.932 54.245 35.759 102.589 68.069 116.413 18.89 8.084 27.432 29.48 19.079 47.751-8.354 18.324-30.424 26.57-49.314 18.513-30.316-12.962-55.727-37.861-76.072-74.294-10.429 30.774-29.696 56.347-56.293 73.674-31.717 20.696-71.896 27.756-113.098 19.941-13.177-2.506-26.435-6.494-39.37-11.857-6.036-2.506-9.997-8.192-10.105-14.552-1.051-57.317 22.717-106.092 65.213-133.794 31.717-20.669 71.896-27.729 113.125-19.914 2.506 0.485 5.066 1.024 7.572 1.617-2.937-10.779-5.605-22.043-8.030-33.819-0.323-1.617-0.647-3.234-0.97-4.851-0.539 0.243-1.105 0.512-1.617 0.701-40.825 18.163-102.508 45.595-175.4 45.595-87.606 0-167.909-38.912-238.7-115.658-70.683-76.638-106.2-180.979-100.002-293.834 6.036-109.999 51.2-215.983 127.165-298.334 83.321-90.328 196.042-142.174 309.221-142.174 11.507 0 23.067 0.566 34.439 1.617 21.019 1.967 37.43 7.976 49.395 12.369 10.536 3.853 13.689 4.824 18.001 4.824 4.096 0 6.306-0.674 15.683-4.312 11.183-4.285 26.462-10.159 46.727-12.342 13.043-1.455 26.301-2.156 39.451-2.156h0.027c113.179 0 225.873 51.847 309.221 142.174 75.965 82.405 121.128 188.335 127.192 298.334 6.171 112.883-29.346 217.223-100.002 293.861zM977.624 381.656c-4.851-88.145-41.041-173.056-101.942-239.104-64.485-69.875-150.043-109.945-234.873-109.945h-0.027c-9.512 0-19.052 0.539-28.429 1.536-6.899 0.728-13.096 3.126-20.938 6.144-12.881 4.985-28.888 11.129-52.467 11.129-23.013 0-39.747-6.117-53.221-11.048-8.596-3.126-16.007-5.848-23.821-6.575-8.192-0.755-16.546-1.159-24.845-1.159-84.803 0-170.415 40.071-234.846 109.945-60.901 66.048-97.118 150.986-101.969 239.104-4.77 87.202 21.8 166.885 74.779 224.364 51.038 55.35 106.334 83.402 164.352 83.402 51.092 0 96.957-20.399 133.821-36.81 11.587-5.147 21.342-9.432 29.992-12.773-1.455-20.237-1.617-36.002-1.59-36.783-5.713 0.889-17.785 2.183-51.011 16.034l-2.291 1.051c-1.805 0.835-3.934 0.566-5.443-0.728-1.509-1.267-2.075-3.288-1.428-5.12 5.336-15.576 17.947-29.642 35.544-39.613 18.189-10.294 39.532-15.737 61.763-15.737 10.698 0 21.45 1.293 31.825 3.8 32.013 7.707 56.616 26.947 65.779 51.416 0.674 1.832 0.162 3.907-1.32 5.201-1.536 1.347-3.692 1.644-5.524 0.781-1.293-0.593-38.508-16.842-53.275-16.95 0 0.431 0.835 24.414 1.913 38.050 7.761 3.099 16.438 6.925 26.489 11.399 36.837 16.384 82.701 36.783 133.794 36.783 58.018 0 113.314-28.052 164.379-83.402 53.059-57.506 79.629-137.189 74.833-224.391z" />
<glyph unicode="&#xe61d;" glyph-name="big-arrow-r" horiz-adv-x="3618" d="M3618.133 482.133h-18.671l-477.73 477.764-49.63-49.63 428.169-428.134h-3500.271v-68.267h3500.237l-428.134-428.134 49.63-49.596 477.73 477.73h18.671z" />
<glyph unicode="&#xe61e;" glyph-name="arrow-r" horiz-adv-x="1902" d="M1901.714 462.629h-8.192l-497.225 497.225-21.065-21.065 476.16-476.16h-1851.392v-29.228h1851.421l-476.189-476.189 21.065-21.036 497.254 497.225h8.163z" />
<glyph unicode="&#xe61f;" glyph-name="big-arrow-l" horiz-adv-x="3618" d="M3618.133 482.133h-3500.237l428.134 428.134-49.63 49.63-477.764-477.764h-18.637v-68.267h18.637l477.764-477.73 49.63 49.596-428.1 428.134h3500.203z" />
<glyph unicode="&#xe620;" glyph-name="pill" horiz-adv-x="1752" d="M1311.767 960.023c-352.051 0-880.777 0-880.777 0s-430.99-62.305-430.99-502.534c0-440.206 361.404-521.466 431.013-521.466s918.255 0 918.255 0 402.91 77.21 402.91 474.066c0 47.4 0 94.822 0 94.822s-20.093 421.251-440.411 455.111zM468.491 239.423h-149.914v303.4c5.461 17.408 37.478 18.978 37.478 18.978h84.332c0 0 103.060-17.408 103.060-75.867s-56.229-66.355-56.229-66.355 65.582-26.874 65.582-94.822-84.309-85.333-84.309-85.333zM665.259 372.156c0 0 7.805-99.556 131.186-75.844 43.713 7.919 37.478-28.444 37.478-28.444s0.774-38.707-65.582-37.934c-66.378 0.796-164.75 30.811-178.039 142.222-0.774 35.567 0 37.934 0 37.934s-4.688 151.711 168.664 151.711c98.372 3.163 74.957-37.934 74.957-37.934s-3.118-18.182-28.103-18.955c0 0-137.421 13.426-140.538-75.867-0.796-57.663-0.023-56.889-0.023-56.889zM1077.567 239.423l-18.751 85.333h-93.685l-18.751-85.333h-74.957l93.707 312.889h93.685l93.685-312.889h-74.934zM1396.144 239.423l-18.751 85.333h-103.083l-18.751-85.333h-74.934l93.685 312.889h93.685l103.060-312.889h-74.911zM1536.66 656.623c-103.060 121.879-215.495 132.71-215.495 132.71s-671.972 0-843.298 0-262.349-142.199-262.349-142.199c-7.031-0.796-22.642 1.57-18.751 18.955 52.315 153.281 243.621 189.622 243.621 189.622s713.682 0 862.026 0 256.887-169.097 262.349-189.622-2.685-28.444-28.103-9.466zM468.491 466.978c0 14.996 0 18.955 0 18.955s-9.375 31.63-46.854 28.444c-31.243-1.57-37.478-2.367-37.478-9.466v-75.867h37.478c0 0 46.854 8.693 46.854 37.934zM440.388 381.645c-20.298-0.796-56.229 0-56.229 0v-94.822h46.854c0 0 47.627 6.326 46.854 37.934 3.891 20.526-17.18 57.685-37.478 56.889zM974.484 372.156h74.934l-37.456 132.756-37.478-132.756zM1283.686 372.156h74.957l-37.478 132.756-37.478-132.756z" />
<glyph unicode="&#xe621;" glyph-name="pulse" horiz-adv-x="1119" d="M1057.223 960.171h-995.612c-34.095 0-61.8-27.762-61.8-61.8v-900.722c0-34.076 27.762-61.8 61.8-61.8h995.612c33.982 0 61.781 27.724 61.781 61.8v900.646c0 34.114-27.8 61.876-61.781 61.876zM1061.926-7.092h-1005.037v910.203h1005.037v-910.203zM187.544 344.064h113.095c10.562 0 19.873 7.073 22.699 17.199l34.645 125.44 49.55-275.039c2.2-12.136 13.047-20.518 25.221-19.285 12.117 1.1 21.504 11.207 21.504 23.4v128.265h66.92c11.7 0 21.637 8.514 23.324 20.101l37.092 255.052 80.441-444.302c2.067-11.15 11.776-19.266 23.059-19.266 0.057 0 0.057 0 0.133 0 11.302 0 20.992 7.983 23.135 19.058l35.935 185.097h18.091l27.117-45.89c4.134-7.092 11.548-11.435 19.816-11.548 7.623-0.284 15.834 3.849 20.158 10.676l27.060 41.548h32.465c13.028 0 23.533 10.6 23.533 23.533 0 13.141-10.524 23.609-23.533 23.609h-45.284c-7.851 0-15.417-4.077-19.665-10.733l-13.293-20.366-14.601 24.785c-4.191 7.149-11.966 11.548-20.29 11.548h-50.935c-11.283 0-21.030-7.983-23.116-19.001l-15.701-80.915-83.816 462.715c-2.048 11.359-12.364 19.968-23.59 19.361-11.548-0.209-21.295-8.742-22.907-20.177l-54.879-377.685h-70.125c-2.617 0-5.101-0.398-7.396-1.233l-37.3 206.981c-1.972 10.771-11.112 18.849-22.13 19.323-12.117 1.688-20.84-6.656-23.723-17.275l-57.42-207.91h-95.289c-13.028 0-23.533-10.487-23.533-23.533 0-13.028 10.505-23.533 23.533-23.533z" />
<glyph unicode="&#xe622;" glyph-name="balance" horiz-adv-x="1654" d="M1630.326 625.841c-214.331 215.493-499.751 334.159-803.663 334.159s-589.312-118.666-803.643-334.159c-30.779-30.917-30.779-81.073 0-112.030l551.503-554.594c14.769-14.848 34.816-23.217 55.729-23.217s40.94 8.369 55.729 23.217c75.067 75.402 206.474 75.343 281.442 0 14.769-14.887 34.816-23.217 55.69-23.217 20.933 0 40.96 8.369 55.729 23.217l551.483 554.594c30.799 30.956 30.799 81.113 0 112.030zM1016.93 121.068c-29.499 18.786-61.617 32.709-95.232 41.964 0.571 4.273 1.26 8.468 1.26 12.879 0 20.736-6.617 39.838-17.644 55.591 0 0.532 0.138 1.044 0.138 1.575v382.976c0 43.776-35.269 79.222-78.789 79.222-43.54 0-78.809-35.466-78.809-79.222v-382.956c0-0.532 0.158-1.044 0.158-1.536-11.067-15.774-17.684-34.895-17.684-55.631 0-4.431 0.729-8.625 1.28-12.879-33.615-9.275-65.694-23.178-95.212-41.945l-444.022 446.503c10.023 8.606 20.697 16.148 31.015 24.281 9.826-6.38 20.894-11.047 33.457-11.047 34.757 0 62.976 28.337 62.976 63.33 0 4.825-1.713 9.058-2.718 13.548 44.564 27.412 91.156 50.767 139.323 70.518 8.29-25.246 31.173-43.796 59.057-43.796 34.796 0 62.976 28.337 62.976 63.311 0 7.385-1.871 14.218-4.175 20.795 62.562 16.62 127.193 26.447 193.004 30.366 7.798-26.053 30.917-45.41 59.392-45.41 28.455 0 51.574 19.338 59.353 45.41 65.792-3.919 130.442-13.726 193.024-30.366-2.304-6.577-4.194-13.41-4.194-20.795 0-34.954 28.199-63.311 62.976-63.311 27.904 0 50.786 18.53 59.057 43.796 48.167-19.732 94.779-43.106 139.303-70.479-1.004-4.51-2.718-8.763-2.718-13.588 0-34.974 28.199-63.33 62.996-63.33 12.583 0 23.631 4.647 33.438 11.047 10.299-8.133 20.992-15.695 31.035-24.281l-444.022-446.543z" />
<glyph unicode="&#xe623;" glyph-name="video" horiz-adv-x="1111" d="M465.027 237.383c0 162.446 114.623 298.442 266.872 331.057v257.329c0 20.371-16.34 36.777-36.537 36.777l-623.551 0.305c0 25.208 37.714 38.041 37.714 38.041h622.309c38.868 0 37.757-34.446 37.757-34.446v-292.058c10.719 1.002 21.613 1.634 32.507 1.634 8.497 0 16.842-0.675 25.186-1.285v350.731c0.044 27.539-34.271 34.511-34.271 34.511h-690.263c-102.945 0-102.945-95.798-102.945-95.798v-882.492c0-20.327 16.319-36.799 36.646-36.799h596.643c-100.33 58.695-168.067 167.696-168.067 292.494zM179.701 725.962h377.856v-71.811h-377.856v71.811zM814.69 531.968c-163.84 0-296.59-133.36-296.59-297.919 0-164.472 132.793-298.006 296.59-298.006 163.84 0 296.633 133.534 296.633 298.006 0 164.537-132.793 297.919-296.633 297.919zM1035.809 179.973c-22.877-16.101-51.766-23.617-90.766-23.617-16.624 0-33.683 0.654-45.666 1.874l-12.135 1.22 27.822 123.403h45.84l-20.872-91.746c3.573-0.087 7.081-0.087 10.175-0.087 25.186 0 43.923 5.73 57.409 17.43 13.987 11.743 21.918 30.023 21.918 50.176 0 26.232-15.491 38.062-50.176 38.062-2.266 0-4.27 0-6.362-0.131v0.131h-80.46l-100.701-159.766h-9.281l-36.080 161.857h-25.665c9.543-10.48 15.055-24.968 15.055-41.614 0-30.437-14.706-59.087-39.304-76.778-22.158-15.687-50.002-22.964-87.715-22.964-16.057 0-32.594 0.741-44.206 1.721l-11.634 1.177 26.777 118.915h44.293l-20.11-88.282h9.87c24.271 0 42.354 5.447 55.536 16.798 13.486 11.351 21.112 29.021 21.112 48.477 0 25.447-14.968 36.799-48.586 36.799-3.813 0-7.473-0.087-10.959-0.24v0.153h-48.128l6.34 28.367 2.004 9.761h189.331l0.85-5.774h0.24l2.179-16.297 1.612-10.24h-0.153l15.469-76.234c1.002 1.634 2.135 3.333 3.137 5.076l65.34 103.446 90.831-0.087c6.71 0.087 17.125 0.087 20.415 0.087 33.879 0 60.089-8.214 76.146-23.813 12.702-10.894 19.892-28.018 19.892-47.888-0.022-31.33-15.12-61.048-40.633-79.371z" />
<glyph unicode="&#xe624;" glyph-name="bottle-1" horiz-adv-x="803" d="M662.588 739.137c-133.020 0-261.020 0-261.020 0h-261.020c0 0-138.039-5.020-140.549-120.471 0-50.196 0-602.353 0-602.353s2.51-80.314 80.314-80.314 642.51 0 642.51 0 80.314 15.059 80.314 80.314 0 602.353 0 602.353-7.529 120.471-140.549 120.471zM501.961 56.471l-301.176 341.333h160.627l-120.471 200.784h220.863l120.471-301.176h-140.549l60.235-240.941zM722.824 960h-642.51v-160.627h642.51v160.627z" />
<glyph unicode="&#xe625;" glyph-name="apple-o" horiz-adv-x="896" d="M786.277 648.516c-37.219 30.78-84.844 46.359-141.531 46.359-59.626 0-117.061-17.469-156.034-32.703-0.091 24.266 1.377 101.827 1.377 101.827 30.845-6.469 75.53-3.609 107.405-3.609 17.596 0 34.408 1.079 50.033 3.187 97.687 13.249 147.438 90.657 166.128 119.78l1.748 2.657c1.998 3.139 2.375 7.047 0.998 10.5-1.342 3.453-94.562 63.486-183.656 63.486-123.562 0-194.625-113.798-198.156-118.624-1.439-1.985-2.203-4.344-2.203-6.751v-172.89c-40.923 16.001-106.297 36.531-173.315 36.531-60.826 0-111.265-16.859-149.342-49.75-157.376-130.141-123.876-354.265-26.141-507.421 92.545-145.063 174.046-197.847 323.576-204.003v-1.092l81.644 0.377v0.78c147.97 6.409 232.25 60.783 323.563 203.939 97.779 153.156 131.278 377.28-26.095 507.421zM759.62 174.721c-85.877-134.595-156.469-175.657-302.078-175.657h-19.048c-147.424 0-215.203 39.403-302.078 175.657-83.389 130.687-114.812 319.593 13.766 425.92 26.907 23.201 63.548 34.968 108.922 34.968 91.687 0 185.921-47.577 186.873-48.064l14.188-7.232 14.172 7.141c20.812 10.533 94.783 44.796 170.407 44.796 41.719 0 75.934-10.78 101.622-32.031 128.067-105.875 96.63-294.781 13.255-425.497zM345.604 95.939c-6.781 5-13.561 11.842-21.313 18.123-7.717 6.442-14.844 14.909-23.171 22.251-7.359 8.779-16.030 16.501-23.515 26.28-7.999 9.309-15.874 18.935-23.015 28.841-7.329 9.064-15.455 21.315-23.483 32.781-28.311 39.158-45.923 89.656-59.298 128.874-12.983 40.721-21.654 67.876-21.654 67.876s-11.813-27.999-13.47-72.531c-1.124-22.249 0.282-48.499 6.719-76.407 6.329-27.717 18.045-57.655 36.563-83.874 8.265-11.471 15.624-22.813 26.765-34.535 9.906-11.966 20.92-21.999 31.826-31.154 10.533-9.594 22.921-16.654 33.61-23.967 11.845-6.001 22.563-12.063 33.47-15.656 21.186-8.376 39.938-11.345 52.827-12.596 13.093-0.939 20.484-0.75 20.484-0.75s-5.861 5-15.906 12.501c-5.124 3.505-10.718 8.94-17.437 13.943z" />
<glyph unicode="&#xe626;" glyph-name="stopwatch" horiz-adv-x="832" d="M417.749 618.299c-0.322 0-0.63-0.023-0.952-0.023v-274.812h271.872c0.017 1.278 0.095 2.537 0.095 3.814 0.004 149.68-121.335 271.021-271.015 271.021zM393 132.055h47.592v-68.799h-47.592v68.799zM151.762 375.995h68.797v-46.543h-68.797v46.543zM717.028 630.857l45.783 48.301c12.065 12.729 11.528 32.828-1.193 44.888l-38.411 36.407c-12.727 12.067-32.821 11.528-44.886-1.202l-52.373-55.244c-41.296 24.498-87.202 41.994-136.079 50.863v67.534h62.406c17.54 0 31.755 14.217 31.755 31.753v74.090c0 17.538-14.215 31.753-31.755 31.753h-272.542c-17.54 0-31.755-14.215-31.755-31.753v-74.090c0-17.536 14.215-31.753 31.755-31.753h61.511v-67.703c-49.564-9.105-96.064-27.069-137.775-52.227-0.317 0.33-0.611 0.675-0.946 0.992l-59.526 56.435c-12.732 12.061-32.825 11.528-44.891-1.202l-36.407-38.411c-12.061-12.721-11.528-32.821 1.202-44.884l49.691-47.11c-67.838-73.582-109.35-171.794-109.35-279.532 0.002-227.601 185.167-412.763 412.761-412.763 227.597 0 412.759 185.162 412.759 412.763 0 108.995-42.481 208.239-111.732 282.094zM416.001 10.045c-186.766 0-338.714 151.948-338.714 338.718s151.946 338.718 338.714 338.718c186.768 0 338.714-151.948 338.714-338.718s-151.946-338.718-338.714-338.718z" />
<glyph unicode="&#xe627;" glyph-name="dumbbell-circle" horiz-adv-x="992" d="M496 934.4c-268.216 0-486.4-218.228-486.4-486.4s218.184-486.4 486.4-486.4 486.4 218.228 486.4 486.4-218.184 486.4-486.4 486.4zM496 7.939c-242.661 0-440.061 197.431-440.061 440.061s197.4 440.061 440.061 440.061 440.061-197.431 440.061-440.061-197.4-440.061-440.061-440.061zM362.853 494.339h266.298v-92.679h-266.298v92.679zM183.345 520.41v-9.414c-3.485 2.13-7.305 3.587-11.622 3.587-12.793 0-23.139-10.363-23.139-23.136v-86.893c0-12.773 10.346-23.136 23.139-23.136 4.318 0 8.137 1.457 11.622 3.587v-9.414c0-23.603 17.702-42.858 40.523-45.725v236.268c-22.822-2.867-40.523-22.122-40.523-45.725zM820.277 514.584c-4.318 0-8.137-1.457-11.619-3.587v9.414c0 23.603-17.705 42.858-40.523 45.725v-236.274c22.822 2.871 40.523 22.122 40.523 45.725v9.414c3.485-2.13 7.305-3.587 11.619-3.587 12.793 0 23.139 10.363 23.139 23.136v86.893c0 12.78-10.346 23.142-23.139 23.142zM293.344 639.034c-25.556 0-46.305-20.75-46.305-46.336v-289.393c0-25.586 20.753-46.336 46.305-46.336 25.586 0 46.339 20.75 46.339 46.336v289.393c0 25.586-20.753 46.336-46.339 46.336zM698.656 639.034c-25.586 0-46.339-20.75-46.339-46.336v-289.393c0-25.586 20.753-46.336 46.339-46.336 25.556 0 46.305 20.75 46.305 46.336v289.393c0 25.586-20.75 46.336-46.305 46.336z" />
<glyph unicode="&#xe628;" glyph-name="circle" d="M1010.482 424.461c0.055-2.66 0.087-5.796 0.087-8.939 0-38.192-4.638-75.3-13.38-110.793l0.66 3.169c-3.059-9.243-6.47-18.419-10.28-27.329q-3.631-8.644-7.62-17.155c-6.87-17.738-13.575-32.212-21.050-46.213l1.102 2.261c9.34 14.947 18.673 32.538 26.807 50.782l1.12 2.812c-32.919-95.086-95.433-172.886-176.353-224.311l-1.744-1.036c34.174 25.285 63.882 53.621 89.735 85.232l0.696 0.877c-12.715-14.23-25.82-27.278-39.646-39.531l-0.496-0.431c1.795 1.928 3.398 3.923 5.16 5.851-21.84-21.779-45.632-41.628-71.080-59.252l-1.717-1.125c-14.907-10.784-31.946-21.392-49.706-30.824l-2.392-1.159c0.072 0.069 0.166 0.117 0.27 0.133h0.003q-25.201-13.764-53.022-25.999c-156.978-68.422-302.040-48.008-414.301 21.477-6.722 3.258-13.299 6.716-19.742 10.24-7.979 5.452-15.859 11.038-23.499 17.089-21.322 16.615-40.25 34.177-57.573 53.226l-0.33 0.368q10.991-10.074 22.495-19.283c-5.266 5.12-10.267 10.506-15.294 15.892-62.5 53.996-109.105 124.802-132.878 205.397l-0.774 3.060c-1.842 5.452-3.704 10.905-5.413 16.49-1.696 7.78-3.158 15.559-4.468 23.406-0.426 2.128-0.938 4.256-1.33 6.317-2.294 8.378-4.229 16.623-6.131 24.869 0.665-6.516 1.45-13.033 2.387-19.483q-6.736 27.927-11.377 58.115c-3.821 23.727-6.004 51.081-6.004 78.944 0 9.935 0.278 19.805 0.825 29.603l-0.061-1.36c3.478 93.446 36.486 178.562 89.898 246.971l-0.71-0.945c18.385 23.549 38.141 44.378 59.713 63.176l0.537 0.458c-8.751-9.243-16.962-18.884-24.902-28.725 25.492 25.351 54.001 47.713 84.929 66.486l2.018 1.137c11.836 7.115 24.051 13.498 36.438 19.549 50.731 31.188 109.839 54.907 172.901 67.757l3.513 0.598c-35.527-5.268-67.009-12.851-97.365-22.905l4.048 1.161c-47.147-15.422-88.043-35.051-125.754-59.216l2.169 1.3c72.804 54.658 165.875 89.234 278.495 92.359-11.211 0.399-22.415 0.465-33.586 0.133 13.227 1.015 28.646 1.594 44.2 1.594 39.465 0 78.060-3.726 115.452-10.845l-3.831 0.607c55.553-9.233 105.371-26.855 150.664-51.7l-2.45 1.231c8.099-5.319 16.032-10.971 23.645-16.956q8.172-6.284 16.005-12.966c13.817-10.254 25.97-20.431 37.505-31.259l-0.222 0.207c-14.196 15.088-29.213 28.971-45.145 41.759l-0.855 0.663c80.648-54.428 140.913-133.702 170.231-226.708l0.823-3.027c-16.437 41.766-36.467 77.829-60.522 110.766l0.964-1.384c9.162-13.677 18.514-29.718 26.906-46.327l1.227-2.679c-1.456 2.327-3.085 4.588-4.575 6.915 14.397-24.437 27.765-52.871 38.497-82.566l1.14-3.61c6.179-15.866 12.124-35.405 16.713-55.46l0.575-2.988c0 0.133 0 0.199-0.040 0.332 4.535-18.552 8.258-37.768 11.304-57.783 3.735-23.374 5.87-50.323 5.87-77.77 0-3.774-0.040-7.538-0.121-11.293l0.009 0.56zM891.146 130.826c3.564 4.655 7.268 9.243 10.639 14.030-7.979-8.844-16.185-17.488-24.829-25.6-4.655-5.386-9.409-10.572-14.243-15.626 9.861 8.711 19.31 17.82 28.433 27.196zM996.053 503.788c-0.412 2.726-0.818 5.519-1.277 8.245 0.101-3.706 0.159-8.068 0.159-12.444 0-23.59-1.68-46.788-4.926-69.481l0.305 2.598c0.519 9.028 0.815 19.59 0.815 30.22 0 42.038-4.628 82.995-13.402 122.39l0.698-3.731c-16.974 55.094-39.797 103.069-68.456 146.88l1.345-2.191c-25.847 39.619-54.943 73.938-87.787 104.257l-0.37 0.338c52.909-41.998 95.682-94.356 125.687-154.223l1.196-2.635c-11.503 28.446-23.508 52.371-37.155 75.202l1.361-2.458c-16.502 21.637-33.776 40.817-52.478 58.503l-0.225 0.211c-48.518 45.663-105.788 82.684-168.936 108.209l-3.655 1.305c28.262-12.282 52.413-25.712 75.077-41.162l-1.555 1c-33.837 18.759-73.022 34.252-114.293 44.453l-3.328 0.696c-37.884 9.206-81.377 14.486-126.103 14.486-62.068 0-121.762-10.168-177.505-28.93l3.922 1.145c-6.596-2.194-13.073-4.655-19.576-7.048 6.37 2.061 12.707 4.256 19.163 6.051-167.876-61.972-263.414-189.506-297.399-332.335-4.024-15.522-7.631-34.779-10.048-54.405l-0.232-2.314c-0.738-2.926-1.33-5.785-1.902-8.578-5.352-26.27-8.659-56.677-9.145-87.769l-0.005-0.402c0 0.332-0.1 0.665-0.133 1.064 0-0.997 0.066-1.928 0.080-2.859 0-1.862-0.14-3.724-0.146-5.585 0.173-1.795 0.313-3.657 0.452-5.519-0.14 3.724-0.233 7.381-0.306 11.104 0 0.598 0.040 1.197 0.053 1.795 0.858-9.176 1.995-18.153 3.325-26.996-0.212 5.461-0.333 11.872-0.333 18.312 0 24.051 1.685 47.709 4.942 70.862l-0.307-2.666c-0.502-8.956-0.789-19.434-0.789-29.98 0-56.531 8.227-111.141 23.548-162.697l-1.029 4.035c49.273-122.023 143.987-217.005 262.636-265.49l3.179-1.149c2.593-1.463 5.186-2.793 7.773-4.056 46.549-23.389 100.658-40.128 157.758-47.229l2.438-0.247c-19.11 0.465-38.713 1.795-58.96 4.056-52.429 5.713-100.385 18.625-145 37.82l3.262-1.249c60.965-31.45 133.056-49.888 209.453-49.888 5.002 0 9.986 0.079 14.95 0.236l-0.725-0.018c21.011 0.697 40.826 2.415 60.322 5.126l-2.972-0.338c2.986 0.133 5.812 0.199 8.751 0.465 20.23 1.323 38.729 3.664 56.866 7.036l-2.933-0.453c15.712 3.657 31.252 7.846 46.592 12.833 5.167 1.662 10.207 3.724 15.294 5.519-25.12-8.268-54.866-14.958-85.489-18.833l-2.428-0.251c4.542 0.931 9.036 2.061 13.558 3.125-14.473-2.38-31.883-4.164-49.551-4.952l-0.984-0.035c63.947 6.867 122.265 25.172 174.867 52.87l-2.649-1.271c13.299 5.652 26.212 12.035 38.919 18.751 5.984 3.591 11.969 7.248 17.873 11.104 23.555 15.502 44 31.187 63.251 48.191l-0.594-0.515c-6.915-5.984-13.964-11.769-21.278-17.288-19.334-14.82-41.127-28.746-64.076-40.766l-2.497-1.191q12.554 7.979 24.416 16.69c-34.086-20.6-73.445-37.863-115.069-49.757l-3.456-0.845c167.969 61.639 263.534 188.576 297.891 330.473 3.726 14.945 7.3 34.128 9.886 53.622l0.314 2.897c0.665 2.926 1.33 5.652 1.789 8.511 3.144 14.832 5.846 33.19 7.505 51.849l0.135 1.878q0.711 22.841-0.326 45.814zM525.438-27.229c-61.763 3.061-119.508 16.876-172.524 39.606l3.251-1.24c52.612-17.699 113.198-27.912 176.17-27.912 10.506 0 20.945 0.284 31.311 0.846l-1.444-0.062c51.424 2.743 99.685 12.171 145.262 27.451l-3.851-1.12c-52.551-22.194-113.539-35.838-177.502-37.555l-0.674-0.014zM222.773 31.884c-80.782 54.895-141.087 134.66-170.308 228.154l-0.82 3.044c23.079-59.264 55.103-110.166 94.975-153.772l-0.335 0.371c22.728-29.157 47.843-54.693 75.584-77.107l0.883-0.69z" />
<glyph unicode="&#xe629;" glyph-name="drugs" horiz-adv-x="992" d="M934.847 285.301c-35.652 38.329-83.95 61.658-136 65.692l-1.345 0.106-588.123 0.574c-114.6 0-207.835-93.235-207.835-207.835 0-114.603 93.235-207.838 207.835-207.838l589.461 0.684c52.050 4.032 100.352 27.359 136.004 65.686 35.861 38.551 55.609 88.791 55.609 141.468 0.002 52.675-19.746 102.913-55.607 141.463zM501.999 6.816l-292.645-0.285c-75.695 0.013-137.279 61.605-137.279 137.302 0 75.71 61.594 137.306 137.268 137.306l292.655-0.289v-274.034zM93.474 418.073c35.407-25.854 78.953-40.090 122.612-40.094 0.002 0 0.004 0 0.008 0 14.958 0 29.983 1.638 44.656 4.877l1.315 0.289 562.989 170.079c109.671 33.247 171.848 149.522 138.601 259.197-13.199 43.535-39.547 80.694-76.202 107.467-35.415 25.866-78.972 40.113-122.634 40.113-20.386 0-40.693-3.023-60.391-8.994l-563.884-171.66c-48.642-18.961-88.096-55.299-111.096-102.322-23.132-47.293-27.454-101.104-12.173-151.515 13.201-43.529 39.549-80.68 76.198-107.437zM724.925 883.517c13.026 3.948 26.443 5.951 39.893 5.951 59.927 0 113.931-40.1 131.336-97.514 21.965-72.454-19.113-149.271-91.531-171.225l-280.146-84.63-79.502 262.245 279.95 85.172z" />
<glyph unicode="&#xe62a;" glyph-name="headphones" d="M1001.782 313.626c-13.256 20.213-31.392 35.973-52.237 46.484 7.127 94.419-21.466 173.336-65.013 177.154l-1.593 0.139c-2.050 79.823-27.729 159.097-75.59 226.958-77.090 109.302-201.177 174.553-331.933 174.553-130.759 0-254.846-65.252-331.941-174.557-47.891-67.917-73.567-147.236-75.602-227.114l-1.577-0.133c-44.278-3.888-73.296-85.293-64.827-181.804 8.488-96.546 51.269-171.638 95.523-167.753h0.018l144.468 12.68c12.186 1.074 23.438 6.939 31.292 16.307 7.874 9.387 11.675 21.487 10.605 33.671l-22.622 257.674c-2.238 25.37-24.604 44.143-49.978 41.901l-38.215-3.362c3.446 55.258 22.094 109.597 56.122 157.845 58.448 82.867 148.371 130.382 246.732 130.382 98.356 0 188.284-47.519 246.732-130.382 34.007-48.198 52.623-102.486 56.103-157.674l-38.198 3.344c-25.372 2.242-47.738-16.527-49.978-41.901l-22.622-257.676c-1.067-12.184 2.734-24.286 10.609-33.669 7.856-9.371 19.11-15.24 31.296-16.308l144.484-12.68c32.556-2.852 64.187 37.202 82.090 96.899 2.731-2.862 5.501-5.698 7.718-9.096 12.223-18.614 14.223-41.949 5.35-62.382l-45.876-105.533c-13.933-32.057-45.514-52.76-80.468-52.76h-61.742c-5.040 16.223-19.603 28.24-37.486 28.24h-114.413c-21.992 0-39.823-17.834-39.823-39.826v-46.331c0-21.992 17.83-39.828 39.823-39.828h114.413c17.884 0 32.446 12.015 37.486 28.238h61.742c62.649 0 119.265 37.133 144.21 94.578l45.887 105.538c18.221 41.992 14.131 89.918-10.968 128.185z" />
<glyph unicode="&#xe62b;" glyph-name="paper" horiz-adv-x="812" d="M799.562 300.712c0 50.134 0 102.19 0 154.301 0 50.176 17.029 103.634 14.027 151.398-1.753 27.886-20.354 56.965-11.096 81.738 11.643 31.155 11.096 63.39 11.096 92.090 0 16.356-14.027 11.026-14.027 25.46 0 12.148 14.027 44.383 14.027 54.973 0 52.981 0 85.301 0 85.301s-64.596 25.937-104.336-7.869c-17.422-14.813-42.924-2.16-68.412 7.869-21.686 8.515-48.156 0-74.037 0-45.014 0-95.499 14.911-141.621 0-25.586-8.276-54.132-40.427-73.139-9.805-10.31 16.594-36.612 9.805-55.633 9.805-37.201 0-80.896-14.027-114.057-14.027-34.592 0-58.396 14.027-85.511 14.027-16.903 0-32.053 0-45.070 0-32.544 0-51.775 0-51.775 0s14.027-35.742 14.027-98.192c0-20.228-14.027-46.122-14.027-70.768 0-13.396 0-27.381 0-41.844 0-12.526 14.027-28.476 14.027-41.689 0-45.323-14.027-91.29-14.027-141.775 0-40.203 0-81.345 0-122.333 0-18.306 14.027-40.385 14.027-58.522 0-9.693-14.027-15.556-14.027-25.165 0-84.88 14.027-161.189 14.027-227.328 0-30.187-14.027-61.777-14.027-84.894 0-51.873 0-83.435 0-83.435s28.728 14.027 84.164 14.027c21.813 0 53.024-14.027 80.279-14.027 36.331 0 73.742 14.027 116.105 14.027 57.134 0 120.86-14.027 180.028-14.027 30.706 0 57.344 14.027 86.493 14.027 16.496 0 36.275-14.027 51.915-14.027 53.486 0 96.018 17.366 138.002 0 11.923-4.924 24.436 0 34.409 0 26.708 0 28.167 14.027 28.167 14.027s14.027 21.462 14.027 79.058c0 20.915-14.027 49.166-14.027 75.243 0 32.333 14.027 63.712 14.027 101.797 0 26.905-14.027 51.817-14.027 80.559z" />
<glyph unicode="&#xe62c;" glyph-name="arrow-top" horiz-adv-x="915" d="M562.083 291.514v287.651h228.259l-395.078 380.928-395.171-380.928h175.663v-287.651c0-196.329 165.050-355.514 368.733-355.514h386.42c-203.776 0-368.826 159.185-368.826 355.514z" />
<glyph unicode="&#xe62d;" glyph-name="cycling" horiz-adv-x="1192" d="M245.995 426.865c-65.586 0-121.621-24.056-168.121-72.116-46.5-48.078-69.75-105.69-69.75-172.838 0-67.131 23.25-124.324 69.75-171.579 46.5-47.238 102.534-70.874 168.121-70.874s121.638 23.619 168.121 70.874 69.733 104.448 69.733 171.579c0 67.148-23.25 124.76-69.733 172.838-46.5 48.078-102.534 72.116-168.121 72.116zM370.369 55.607c-33.926-35.37-75.004-53.063-123.249-53.063s-89.692 17.693-124.374 53.063c-34.665 35.353-52.023 77.891-52.023 127.564s17.341 92.194 52.023 127.564c34.665 35.37 76.129 53.063 124.374 53.063s89.323-17.693 123.249-53.063c33.926-35.353 50.881-77.891 50.881-127.564s-16.972-92.21-50.881-127.564zM708.020 772.524c24.895 0 46.080 9.115 63.505 27.346s26.154 39.785 26.154 64.663-8.729 46.433-26.154 64.663-38.61 27.346-63.505 27.346-46.080-9.115-63.522-27.346c-17.425-18.231-26.137-39.785-26.137-64.663s8.712-46.433 26.137-64.663c17.442-18.231 38.61-27.346 63.522-27.346zM877.383 548.705c14.957 0 25.734 6.228 32.399 18.65 6.631 12.439 6.631 24.861 0 37.3-6.648 12.439-17.442 18.65-32.399 18.65h-144.468l-94.661 156.672-7.453 9.938c-3.324 4.986-9.971 10.358-19.926 16.166-9.971 5.808-20.765 8.712-32.382 8.712h-9.971c-4.969 1.662-12.456 0.42-22.41-3.727-9.971-4.146-18.264-10.358-24.912-18.65l-189.289-193.972c-11.617-13.262-17.442-29.83-17.442-49.74 0-29.83 12.456-52.207 37.368-67.131l194.275-109.434v-206.395c0-14.924 4.566-27.346 13.698-37.3s21.168-14.924 36.109-14.924c14.957 0 26.977 4.969 36.109 14.924s13.681 22.377 13.681 37.3v256.134l2.484 12.439c0 6.631-3.307 15.326-9.971 26.104-6.631 10.794-16.585 19.49-29.864 26.12l-112.086 59.694 122.057 119.355 57.277-92.009c9.971-16.569 22.41-24.861 37.351-24.861h164.428zM1113.994 356.713c-46.5 48.078-102.534 72.116-168.137 72.116-65.57 0-121.621-24.039-168.121-72.116s-69.733-105.69-69.733-172.821c0-67.148 23.25-124.34 69.733-171.596s102.534-70.874 168.121-70.874c65.586 0 121.638 23.619 168.137 70.874s69.733 104.448 69.733 171.596c0.017 67.148-23.233 124.743-69.733 172.821zM1070.248 57.571c-33.926-35.37-75.004-53.047-123.233-53.047-48.262 0-89.709 17.677-124.391 53.047-34.648 35.37-52.006 77.891-52.006 127.564s17.341 92.194 52.006 127.58c34.682 35.353 76.129 53.047 124.391 53.047 48.229 0 89.306-17.693 123.233-53.047 33.926-35.37 50.881-77.908 50.881-127.58s-16.972-92.177-50.881-127.564z" />
<glyph unicode="&#xe62e;" glyph-name="runner-left" horiz-adv-x="1140" d="M355.097 370.605l-95.001-120.849-213.818-41.356c-30.918-5.962-51.167-36.104-45.254-67.287 5.219-27.499 29.151-46.609 55.907-46.609 3.551 0 7.234 0.347 10.785 1.057l234.546 45.419c13.378 2.643 25.352 9.943 33.875 20.695l100.682 128.132-33.643 17.325c-24.857 12.668-42.149 35.625-48.078 63.471zM881.647 708.030c68.971 0 124.862 56.403 124.862 125.985s-55.891 125.985-124.862 125.985c-68.955 0-124.862-56.403-124.862-125.985s55.907-125.985 124.862-125.985zM1108.364 660.579c-10.884 11.71-25.583 17.689-40.266 17.689-13.395 0-26.888-4.905-37.426-14.815l-106.876-100.286c-0.099-0.116-267.826 254.002-314.616 302.41-13.147 13.626-25.352 19.010-38.73 19.010-4.856 0-9.711-0.727-14.931-1.916l-214.28-51.283c-29.613-7.052-47.847-37.046-40.861-66.824 6.045-25.583 28.556-42.793 53.545-42.793 4.261 0 8.539 0.479 12.783 1.569l182.553 43.636c11.842-13.279 71.201-78.171 81.97-89.65-75.462-81.54-150.908-162.915-226.37-244.439-1.189-1.321-2.246-2.626-3.32-3.947-22.033-28.325-15.277-72.787 17.887-89.65l231.341-119.18-120.105-196.377c-16.467-27.020-8.175-62.398 18.597-79.129 9.348-5.863 19.654-8.605 29.845-8.605 19.076 0 37.805 9.678 48.574 27.252l152.576 249.46c8.407 13.741 10.653 30.357 6.26 45.766-4.377 15.542-14.914 28.457-29.25 35.741l-156.705 80.45 164.781 177.862 124.383-106.38c10.29-8.836 22.974-13.147 35.526-13.147 13.494 0 27.020 5.021 37.541 14.815l142.749 134.227c22.264 20.926 23.552 56.072 2.824 78.534z" />
<glyph unicode="&#xe62f;" glyph-name="stretches" horiz-adv-x="873" d="M870.786 530.994c-22.83 98.64-62.749 211.145-136.561 282.137-2.166 2.098-4.415 3.945-6.681 5.691 41.699 42.034-24.442 107.805-69.699 66.879-87.896-79.486-190.229-137.871-297.279-185.915-4.046-1.276-7.991-2.854-11.818-4.65-91.489 3.911-203.524 23.854-267.331 90.817-43.092 45.241-110.726-23.938-67.668-69.112 68.222-71.646 174.063-103.306 274.55-114.772-0.101-9.417 1.108-18.902 4.046-28.236 39.248-124.894 123.602-247.069 248.815-291.169 8.209-2.938 16.569-4.247 24.845-4.465v-277.202c0-86.637 131.626-86.637 131.626 0v358.685c84.908 33.473 191.723 91.354 173.157 171.31zM616.733 472.694c-6.832 4.096-14.084 7.621-21.789 10.324 7.403-4.146 5.573-3.206-5.573 2.787-5.808 3.089-8.175 4.062-9.082 4.264-0.638 0.839-2.602 2.854-7.873 7.403-11.919 10.24-26.221 25.399-33.977 35.941-23.552 31.979-40.842 66.392-49.588 94.174-2.451 7.705-5.657 14.957-9.401 21.789 51.032 26.221 100.285 55.531 147.204 88.584 3.273-6.849 8.007-13.547 14.554-19.842 47.876-46.046 74.819-116.484 92.731-182.943-34.581-28.823-74.534-47.507-117.206-62.481zM319.891 730.070c62.195 0 112.606 51.469 112.606 114.99 0 63.488-50.411 114.973-112.606 114.973s-112.606-51.469-112.606-114.973c0-63.522 50.411-114.99 112.606-114.99z" />
<glyph unicode="&#xe630;" glyph-name="treadmil" horiz-adv-x="1119" d="M435.641 745.795c55.028 0 99.627 44.694 99.627 99.816 0 55.107-44.599 99.801-99.627 99.801-55.012 0-99.612-44.694-99.612-99.801 0.016-55.123 44.615-99.816 99.612-99.816zM468.189 615.385c33.824-58.21 65.946-117.445 96.807-177.325-45.607-23.347-99.564-64.291-127.071-86.646s-78.785-136.602-105.157-191.236c-28.325-58.667 62.811-101.218 91.041-42.803 23.268 48.16 62.432 143.974 85.244 162.784 22.796 18.794 97.642 71.885 154.75 91.813 2.836 0.992 5.388 2.158 7.814 3.45 69.9-88.899 206.816-130.883 323.6-62.496 61.535 36.029 5.876 124.881-55.847 88.726-85.543-50.113-174.553 13.974-214.882 94.208s-68.876 136.728-101.549 193.552c63.819 20.401 122.155 1.764 168.046-62.622 37.321-52.382 124.597-2.158 86.882 50.853-88.836 124.613-221.263 155.553-353.831 76.69-5.514-3.293-30.405-17.030-36.013-20.37-82.408-49.010-159.004-39.715-216.206 40.55-37.368 52.413-124.629 2.174-86.867-50.822 72.972-102.416 175.435-141.407 283.238-108.308zM1071.813 41.078h-901.388l-71.050 406.953h178.901c24.938 0 45.166 20.244 45.166 45.245 0 24.986-20.212 45.245-45.166 45.245h-231.582c-24.938 0-45.166-20.259-45.166-45.245v-6.176c0-2.615 0.236-5.23 0.677-7.798l85.78-491.284c3.781-21.646 22.544-37.447 44.489-37.447h939.323c24.938 0 45.166 20.259 45.166 45.245 0.016 25.017-20.212 45.261-45.151 45.261z" />
<glyph unicode="&#xe631;" glyph-name="weight-rounded" horiz-adv-x="1114" d="M909.078 316.156c-81.92 0-151.534-50.805-177.314-121.676h-349.687c-25.798 70.872-95.43 121.676-177.314 121.676-103.837 0-188.021-81.668-188.021-182.398s84.184-182.398 188.021-182.398c81.902 0 151.534 50.805 177.314 121.676h349.669c25.798-70.872 95.412-121.676 177.314-121.676 103.837 0 188.021 81.668 188.021 182.398s-84.166 182.398-188.003 182.398zM273.552 391.357c78.453 22.815 130.12 90.867 133.857 165.942l334.956 97.37c45.685-60.721 127.407-90.004 205.86-67.207 99.472 28.924 155.971 130.605 126.132 227.094-29.786 96.508-134.593 151.3-234.065 122.395-78.453-22.815-130.12-90.867-133.857-165.942l-334.956-97.37c-45.667 60.721-127.407 90.004-205.86 67.189-99.49-28.906-155.953-130.587-126.15-227.076 29.804-96.525 134.593-151.318 234.083-122.395z" />
<glyph unicode="&#xe632;" glyph-name="yoga" horiz-adv-x="1229" d="M950.699 335.65c-25.6-24.713-52.497-46.677-79.735-65.485 176.486-28.826 270.729-83.063 270.729-115.627 0-45.858-186.129-135.066-527.292-135.066-341.18 0-527.309 89.225-527.309 135.066 0 32.546 94.259 86.801 270.78 115.627-27.221 18.807-54.135 40.772-79.77 65.485-156.672-34.475-270.199-95.249-270.199-181.111 0-140.937 305.101-214.647 606.498-214.647s606.498 73.711 606.498 214.647c0 85.862-113.527 146.603-270.199 181.111zM376.917 257.809c-24.235-16.333-39.1-37.239-39.1-63.505 0-83.302 148.975-112.879 276.582-112.879s276.565 29.577 276.565 112.879c0 26.266-14.848 47.138-39.083 63.505-29.935-19.285-59.153-35.396-86.443-48.418 17.271-4.983 30.618-10.308 38.793-15.087-24.508-14.251-90.47-33.297-189.833-33.297-99.379 0-165.342 19.046-189.85 33.297 8.192 4.779 21.538 10.103 38.81 15.087-27.238 13.022-56.508 29.184-86.443 48.418zM766.174 299.025c72.26 39.373 153.771 99.55 205.039 188.467 109.090 189.559 38.69 435.644 38.69 435.644s-104.499-26.112-207.667-96.256c32.751-65.86 58.624-145.289 58.624-231.834-0.034-116.719-46.49-220.109-94.686-296.021zM462.643 299.076c-48.213 75.844-94.652 179.2-94.652 295.97 0 86.545 25.873 165.973 58.573 231.834-103.151 70.144-207.616 96.256-207.616 96.256s-70.451-246.084 38.707-435.627c51.217-88.934 132.727-149.111 204.988-188.433zM614.4 251.836c10.906 0 21.265 4.762 28.297 13.107 47.718 56.183 138.974 182.852 138.974 330.121 0 199.424-167.253 361.062-167.253 361.062s-167.236-161.655-167.236-361.062c0-147.234 91.221-273.903 138.923-330.086 7.066-8.329 17.391-13.141 28.297-13.141z" />
<glyph unicode="&#xe641;" glyph-name="dumbbell" horiz-adv-x="2086" d="M2028.241 506.633h-201.121v235.103c0 50.366-40.467 91.364-90.15 91.364h-87.761v20.101c0 59.051-47.332 107.027-105.548 107.027h-167.329c-58.14 0-105.548-48.014-105.548-107.027v-346.605h-447.602v346.643c0 59.051-47.369 107.027-105.586 107.027h-167.253c-58.254 0-105.586-48.014-105.586-107.027v-20.101h-87.799c-49.683 0-90.112-40.998-90.112-91.364v-235.103h-209.124c-31.896 0-57.761-26.169-57.761-58.596 0-32.351 25.865-58.52 57.761-58.52h209.086v-238.857c0-50.328 40.429-91.326 90.112-91.326h87.761v-16.384c0-59.089 47.332-106.989 105.586-106.989h167.253c58.254 0 105.586 47.938 105.586 106.989v346.567h447.564v-346.643c0-59.013 47.407-106.951 105.548-106.951h167.329c58.216 0 105.548 47.976 105.548 106.951v16.346h87.761c49.683 0 90.15 40.998 90.15 91.364v238.895h201.121c31.896 0 57.761 26.169 57.761 58.52 0.114 32.389-25.79 58.596-57.647 58.596zM444.757 176.45h-62.35v539.534h62.35v-539.534zM707.622 53.001h-147.342v790.111h147.342v-790.111zM1533.649 53.039h-147.342v790.073h147.342v-790.073zM1711.559 176.45h-62.388v539.534h62.388v-539.534z" />
<glyph unicode="&#xe65a;" glyph-name="wheat" horiz-adv-x="458" d="M457.836 658.459c0.269 15.522-11.587 27.891-26.381 27.648-14.821-0.269-26.84-0.458-26.84-0.458-3.288-0.081-16.815-0.566-35.193-4.312 16.061 38.723 19.887 83.025 17.112 124.497-3.368 49.314-14.417 98.385-35.005 142.956-5.201 11.264-20.318 14.174-30.073 8.192-10.914-6.764-13.177-20.237-7.976-31.555 1.159-2.506 2.317-5.066 3.395-7.572 0.458-1.051 0.862-2.102 1.32-3.126 1.752-4.581 3.503-9.216 5.066-13.905 7.518-22.232 13.043-45.299 16.519-68.662 0.269-1.94 0.566-3.907 0.808-5.848 0.027-0.189 0.054-0.431 0.081-0.647 0.323-2.722 0.62-5.363 0.889-8.030 0.566-5.982 0.997-11.911 1.32-17.893 0.566-12.369 0.593-24.765-0.189-37.107-0.243-3.476-0.512-6.872-0.808-10.267-0.162-1.347-0.862-7.087-0.781-6.925-0.701-4.716-1.536-9.378-2.506-14.067-2.048-9.674-4.662-19.321-8.084-28.618 1.428 8.92 2.237 18.136 2.264 27.675 0.189 77.366-51.685 135.437-57.613 141.851l-18.621 20.103c-10.321 11.075-27.082 11.048-37.457-0.108-10.348-11.156-18.755-20.211-18.755-20.211-5.363-5.74-48.047-53.544-56.751-119.323-3.8 5.066-7.707 10.078-11.641 14.929-27.864 34.25-60.362 63.919-94.073 91.621-9.405 7.761-21.854 9.647-31.124-0.054-7.734-8.111-9.512-24.819-0.081-32.579 32.768-26.92 64.593-55.7 91.81-88.845 3.773-4.635 7.491-9.27 11.075-14.040 0.243-0.35 0.458-0.593 0.593-0.808 0.081-0.108 0.162-0.216 0.216-0.323 0.701-0.916 1.374-1.94 2.075-2.856 1.374-1.94 2.722-3.88 4.042-5.848 5.875-8.704 11.426-17.677 16.33-27.055 2.695-5.066 5.228-10.24 7.572-15.522 0.054-0.189 0.216-0.539 0.377-0.943-34.897 13.312-65.536 14.255-70.737 14.309l-26.84 0.35c-14.821 0.162-26.705-12.288-26.543-27.81s0.296-28.106 0.296-28.106c0.081-8.111 2.156-74.483 41.418-127.434l-21.235 0.243c-11.722 0.135-21.1-12.342-20.884-27.864 0.189-15.468 0.323-28.079 0.323-28.079 0.081-8.084 2.237-74.483 41.499-127.434l-21.181 0.269c-11.695 0.135-20.992-12.342-20.749-27.891 0.243-15.495 0.431-28.106 0.431-28.106 0.108-8.92 2.991-88.657 55.027-143.198 52.062-54.541 129.24-56.967 137.755-57.101l5.659-0.027-0.431-92.16c-0.054-19.106 11.075-34.52 24.657-34.493 13.555 0.027 24.765 15.549 24.819 34.6l0.431 92.16c9.89 0.216 84.83 3.476 136.731 57.829 52.332 54.838 55.161 134.575 55.296 143.468l0.458 28.133c0.243 15.522-9.081 27.971-20.776 27.756-11.749-0.189-21.261-0.377-21.261-0.377 39.532 53.221 41.957 119.592 42.065 127.65l0.458 28.133c0.243 15.522-9.081 27.944-20.803 27.756-11.749-0.216-21.208-0.404-21.208-0.404 39.532 53.221 41.93 119.592 42.065 127.704l0.35 28.16zM107.52 158.397c-38.616 40.448-39.289 105.283-39.289 105.283s61.898-0.701 100.487-41.176c38.616-40.448 39.289-105.283 39.289-105.283s-61.898 0.728-100.487 41.176zM107.978 341.585c-38.616 40.421-39.289 105.283-39.289 105.283s61.898-0.728 100.487-41.176 39.289-105.31 39.289-105.31-61.898 0.728-100.487 41.203zM108.436 524.719c-38.616 40.475-39.316 105.337-39.316 105.337s61.898-0.728 100.514-41.203c38.616-40.421 39.289-105.31 39.289-105.31s-61.898 0.755-100.487 41.176zM237.137 626.338c0 0-43.062 46.376-42.927 103.747 0.162 57.317 43.439 103.936 43.439 103.936s43.035-46.403 42.9-103.747-43.412-103.936-43.412-103.936zM364.355 159.070c-35.948-37.699-92.052-41.337-99.732-41.688l0.027 13.312c2.237 21.127 10.833 62.895 38.804 92.16 38.804 40.691 100.756 41.715 100.756 41.715s-1.024-64.862-39.855-105.499zM364.84 342.232c-36.002-37.699-92.052-41.337-99.759-41.688l0.027 13.339c2.264 21.073 10.887 62.841 38.804 92.16 38.804 40.664 100.81 41.715 100.81 41.715s-1.078-64.862-39.882-105.526zM365.272 525.393c-35.948-37.645-92.025-41.31-99.732-41.661v1.671h-0.808c0.566 12.719 5.066 67.234 39.747 103.559 38.777 40.664 100.648 41.984 100.648 41.984s-1.024-64.835-39.855-105.553z" />
<glyph unicode="&#xe667;" glyph-name="heart6" horiz-adv-x="1177" d="M827.915 960c-148.894 5.447-239.66-130.723-239.66-130.723s-59.915 123.468-239.66 130.723c-394.894-13.748-326.809-392.17-326.809-392.17h217.872l108.936 239.66 239.66-392.17 65.362 152.511c0 0 92.596 0 152.511 0 2.723 16.101 5.447 23.617 43.574 21.787 45.906 0 45.731-53.553 43.574-65.362-5.076-41.962-22.245-42.899-43.574-43.574-34.25 1.373-43.574 21.787-43.574 21.787h-108.936l-108.936-239.66-239.66 392.17-65.362-174.298c0 0-19.979 0-217.872 0 165.213-242.187 522.894-544.681 522.894-544.681s539.234 446.638 566.468 631.83c37.627 259.377-177.915 386.723-326.809 392.17z" />
<glyph unicode="&#xe680;" glyph-name="heart-o" horiz-adv-x="1310" d="M1125.709 918.159c-131.834 71.609-305.771 49.104-414.291-51.438-108.711 100.543-282.838 123.047-414.434 51.438-113.593-61.583-183.891-178.676-183.891-305.89 0-36.602 5.906-72.942 16.836-104.138 4.096-17.932 10.692-36.578 18.837-55.725h-114.95c-21.48 0-37.221-11.216-33.863-32.244 2.858-17.86 12.931-23.314 33.863-23.933h457.156c15.622 0 29.744 8.954 35.983 23.219l41.793 94.589 52.819-219.16c3.786-15.217 16.217-26.648 32.006-29.148 1.953-0.405 3.977-0.524 6.12-0.524 13.455 0 26.195 7.001 33.316 18.527l112.783 182.248h120.022c21.504 0 29.101 12.979 29.101 34.244 0 21.337-7.573 21.956-29.101 21.956h-142.026c-13.669 0-26.386-7.001-33.435-18.48l-87.659-149.766-62.607 271.717c-3.763 16.193-24.909 19.408-32.339 21.052-18.742-9.335-22.957-26.719-30.268-41.96l-72.371-152.314h-249.713c-14.145 25.862-25.29 50.724-31.101 76.181-9.073 27.243-13.931 55.391-13.931 83.682 0 99.018 69.775 216.159 158.387 264.144 112.64 61.297 269.479 28.243 352.28-69.727 15.074-17.646 45.628-17.646 60.392 0 82.539 97.852 238.902 116.831 359.591 69.703 89.945-44.937 151.123-164.602 150.814-264.311-0.071-28.434-4.572-56.511-14.908-87.35-39.198-174.58-361.258-445.154-532.456-526.074-43.127 28.1-147.647 101.638-250.499 188.083-11.955 9.121-27.553 16.051-41.746 0-13.86-16.217-10.311-24.076-1.596-40.603 137.978-116.141 274.051-200.728 279.6-204.181 6.454-4.144 13.764-6.025 21.123-6.025 7.263 0 14.455 2.119 20.885 6.025 20.599 12.812 503.57 313.606 559.533 562.247 11.859 34.864 17.98 71.156 17.98 107.949 0 127.309-70.585 244.474-184.034 305.985z" />
<glyph unicode="&#xe69e;" glyph-name="watermelon-o" horiz-adv-x="1975" d="M612.547 483.816c-21.431-21.504-21.431-56.393 0-77.873s56.174-21.504 77.605 0c21.431 21.504 56.296 91.355 34.865 112.859-21.455 21.48-91.038-13.483-112.469-34.987zM987.429 409.722c-30.306 0-54.882-74.094-54.882-104.521 0-30.403 24.576-55.077 54.882-55.077s54.882 24.674 54.882 55.077c0 30.427-24.576 104.521-54.882 104.521zM429.251 837.144c-30.306 0-54.882-24.649-54.882-55.052 0-30.427 24.576-55.077 54.882-55.077 30.33 0 104.18 24.649 104.18 55.077 0 30.403-73.85 55.052-104.18 55.052zM1249.865 518.778c-21.431-21.504 13.41-91.355 34.865-112.859 21.431-21.504 56.174-21.504 77.605 0s21.431 56.393 0 77.873-91.038 56.491-112.469 34.987zM1965.154 950.296c-6.217 6.217-14.629 9.704-23.43 9.704h-1908.59c-18.31 0-33.134-14.872-33.134-33.231 0-264.631 102.717-513.463 289.207-700.562s434.469-290.206 698.222-290.206c263.729 0 511.707 103.083 698.222 290.182 186.49 187.148 289.207 435.931 289.207 700.587 0 8.826-3.486 17.286-9.704 23.528zM987.429 2.511c-496.835 0-903.070 396.727-920.576 891.002h127.22c17.432-424.155 366.738-763.855 793.673-763.855 1.707 0 3.365 0.171 4.998 0.439 1.634-0.268 3.291-0.439 4.998-0.439 154.843 0 304.884 44.739 433.957 129.341 125.733 82.408 225.304 198.144 287.988 334.702 7.656 16.701 0.39 36.425-16.238 44.105s-36.279 0.39-43.959-16.286c-118.613-258.389-378.344-425.35-661.748-425.35-1.707 0-3.365-0.171-4.998-0.439-1.634 0.268-3.291 0.439-4.998 0.439-390.388 0-709.973 309.882-727.357 697.368h1464.661c-1.024-22.991-3.023-45.958-6.168-68.584-2.536-18.164 10.118-34.987 28.258-37.498 1.536-0.219 3.072-0.341 4.584-0.341 16.262 0 30.452 12.044 32.792 28.672 3.56 25.649 5.851 51.663 6.9 77.726h116.565c-17.506-494.299-423.717-891.002-920.552-891.002zM1545.606 837.144c-30.306 0-104.155-24.649-104.155-55.052 0-30.427 73.85-55.077 104.155-55.077s54.882 24.649 54.882 55.077c0 30.403-24.576 55.052-54.882 55.052z" />
<glyph unicode="&#xe6c0;" glyph-name="key" horiz-adv-x="647" d="M637.952 891.877c-5.659 13.42-13.797 25.438-24.172 35.705-10.402 10.321-22.501 18.378-36.029 23.983-14.040 5.821-28.888 8.677-44.14 8.542l-421.834-4.069c-33.145-0.323-64.135-15.144-85.1-40.583-16.007-19.483-24.926-44.059-25.088-69.255l-1.725-250.691c-0.108-15.171 2.829-29.885 8.731-43.816 5.659-13.447 13.824-25.438 24.199-35.732 10.375-10.267 22.501-18.351 36.029-23.956 14.040-5.821 28.888-8.704 44.14-8.515l167.855 1.59-4.743-508.362c-0.081-10.914 4.258-21.369 12.045-29.076s18.351-11.992 29.319-11.884l207.225 1.994c12.584 0.135 23.768 5.875 31.124 14.848 5.848 7.114 9.324 16.249 9.162 26.139-0.269 22.42-18.782 40.394-41.337 40.125l-165.619-1.536 0.566 78.552 167.208 1.671c12.611 0.135 23.768 5.875 31.124 14.821 5.848 7.114 9.324 16.249 9.189 26.112-0.296 22.42-18.809 40.394-41.364 40.205l-165.619-1.644 3.368 308.871 172.328 1.671c33.118 0.35 64.135 15.117 85.046 40.583 16.034 19.456 24.953 44.032 25.115 69.228l1.725 250.691c0.108 15.091-2.803 29.858-8.731 43.789zM563.308 598.178c-0.054-7.087-2.587-13.528-6.737-18.567-5.416-6.602-13.635-10.806-22.878-10.914l-421.807-4.096c-16.788-0.162-30.477 13.393-30.37 30.1l1.752 250.691c0.027 7.060 2.56 13.501 6.737 18.567 5.416 6.575 13.635 10.779 22.851 10.914l421.861 4.042c16.788 0.189 30.477-13.393 30.37-30.073l-1.779-250.664z" />
<glyph unicode="&#xe6c1;" glyph-name="grid" d="M0 528.842h431.158v431.158h-431.158v-431.158zM107.789 852.211h215.579v-215.579h-215.579v215.579zM0-64h431.158v431.158h-431.158v-431.158zM107.789 259.368h215.579v-215.579h-215.579v215.579zM592.842-64h431.158v431.158h-431.158v-431.158zM700.632 259.368h215.579v-215.579h-215.579v215.579zM592.842 960v-431.158h431.158v431.158h-431.158zM916.211 636.632h-215.579v215.579h215.579v-215.579z" />
<glyph unicode="&#xe6c2;" glyph-name="post" horiz-adv-x="1092" d="M989.867 789.333v170.667h-989.867v-866.441c0 0 0-157.525 162.133-157.525h808.55c0 0 121.617 2.423 121.617 157.525v695.774h-102.434zM136.533 4.267c-81.067 0-68.267 102.4-68.267 102.4v785.067h853.333v-819.2c0-36.284 18.261-50.859 34.133-68.267h-819.2zM170.667 652.8h648.533v68.267h-648.533v-68.267zM580.267 174.933h136.533v68.267h-136.533v-68.267zM580.267 345.6h238.933v68.267h-238.933v-68.267zM580.267 482.133h238.933v68.267h-238.933v-68.267zM170.667 174.933h341.333v375.467h-341.333v-375.467z" />
<glyph unicode="&#xe6c3;" glyph-name="flash" horiz-adv-x="719" d="M718.596 391.123l-226.933 568.895h-416.031l226.933-379.257h-302.565l567.296-644.743-113.43 455.105z" />
<glyph unicode="&#xe6c4;" glyph-name="run" horiz-adv-x="1466" d="M452.236 858.252h452.399c11.869 0 21.504 9.798 21.504 21.853s-9.635 21.853-21.504 21.853h-452.399c-11.892 0-21.527-9.798-21.527-21.853s9.635-21.853 21.527-21.853zM47.639 644.515h452.375c11.892 0 21.527 9.775 21.527 21.83 0 12.102-9.635 21.853-21.527 21.853h-452.375c-11.892 0-21.527-9.775-21.527-21.853 0.023-12.055 9.658-21.83 21.527-21.83zM169.1 419.584c0-12.079 9.635-21.853 21.527-21.853h452.375c11.892 0 21.527 9.798 21.527 21.853s-9.635 21.853-21.527 21.853h-452.399c-11.869 0.023-21.504-9.775-21.504-21.853zM427.985 165.516h-406.458c-11.892 0-21.527-9.775-21.527-21.853s9.635-21.853 21.527-21.853h406.458c11.892 0 21.527 9.798 21.527 21.853 0 12.079-9.635 21.853-21.527 21.853zM1159.354 721.199c64.908 0 117.551 53.457 117.551 119.389 0 65.955-52.643 119.412-117.551 119.412-64.954 0-117.597-53.457-117.597-119.412 0.023-65.932 52.643-119.389 117.597-119.389zM1352.727 755.572c-67.491-96.023-157.882-107.148-255.162-48.5-6.609 4.003-35.98 20.433-42.473 24.367-156.509 94.348-312.785 57.344-417.606-91.741-44.544-63.418 58.484-123.508 102.516-60.835 54.156 77.033 123.020 99.328 198.33 74.938-38.563-68.003-72.285-135.564-119.831-231.564-47.593-96-152.669-172.684-253.603-112.71-72.844 43.217-138.519-63.046-65.908-106.17 137.821-81.827 299.427-31.558 381.929 74.775 2.863-1.536 5.865-2.956 9.193-4.143 67.398-23.831 155.741-87.343 182.668-109.847s73.169-137.146 100.608-194.723c33.303-69.888 140.87-18.991 107.427 51.177-31.116 65.373-83.363 195.793-124.113 228.771-32.675 26.484-96.14 75.729-149.946 103.657 36.399 71.633 74.31 142.499 114.223 212.131 127.232-39.587 248.134 7.075 334.266 129.583 44.567 63.418-58.415 123.508-102.516 60.835z" />
<glyph unicode="&#xe6c5;" glyph-name="run-2" horiz-adv-x="1105" d="M349.184 370.607l-93.427-120.832-210.243-41.337c-30.397-5.982-50.311-36.109-44.49-67.315 5.12-27.486 28.645-46.592 55-46.592 3.476 0 7.114 0.377 10.59 1.078l230.643 45.433c13.15 2.641 24.926 9.917 33.307 20.696l99.005 128.135-33.091 17.354c-24.468 12.584-41.499 35.544-47.293 63.38zM866.897 708.042c67.827 0 122.799 56.401 122.799 125.979s-54.973 125.979-122.799 125.979c-67.8 0-122.745-56.401-122.745-125.979s54.946-125.979 122.745-125.979zM1089.832 660.588c-10.698 11.722-25.169 17.704-39.586 17.704-13.177 0-26.462-4.931-36.837-14.848l-105.041-100.271c-0.108-0.108-263.33 254.006-309.356 302.403-12.908 13.635-24.899 18.998-38.077 18.998-4.77 0-9.539-0.701-14.659-1.886l-210.701-51.281c-29.13-7.060-47.050-37.053-40.179-66.803 5.928-25.573 28.079-42.792 52.655-42.792 4.204 0 8.408 0.485 12.584 1.563l179.496 43.628c11.641-13.258 70.009-78.174 80.6-89.654-74.213-81.489-148.399-162.924-222.585-244.413-1.159-1.32-2.237-2.641-3.261-3.934-21.666-28.349-15.037-72.785 17.57-89.627l227.49-119.188-118.11-196.392c-16.195-27.001-8.030-62.383 18.297-79.117 9.189-5.875 19.321-8.623 29.346-8.623 18.755 0 37.16 9.674 47.751 27.271l150.016 249.452c8.273 13.77 10.483 30.37 6.171 45.784-4.312 15.522-14.686 28.456-28.753 35.732l-154.085 80.438 162.008 177.853 122.314-106.361c10.105-8.839 22.582-13.15 34.951-13.15 13.258 0 26.516 5.039 36.891 14.848l140.369 134.198c21.827 20.857 23.121 55.997 2.722 78.471z" />
<glyph unicode="&#xe6c6;" glyph-name="shield2" horiz-adv-x="871" d="M860.334 865.487c-1.656 10.915-10.087 19.565-20.981 21.591l-398.794 73.183c-3.137 0.566-6.318 0.566-9.434 0l-398.837-73.183c-10.894-2.026-19.325-10.676-20.981-21.591-1.699-11.242-40.72-277.548 37.714-507.904 79.393-233.123 361.102-410.254 373.063-417.661 4.205-2.636 8.976-3.943 13.748-3.943s9.543 1.307 13.748 3.943c11.961 7.408 293.67 184.56 373.063 417.661 78.456 230.356 39.391 496.662 37.692 507.904zM747.651 386.952c-66.582-191.619-311.841-340.97-311.841-340.97v410.559h-331.471c-38.999 172.903-11.83 348.835-11.83 348.835l343.323 61.789v-410.646h331.515c-5.273-23.378-11.765-46.712-19.696-69.567z" />
<glyph unicode="&#xe6c7;" glyph-name="shoes" horiz-adv-x="1280" d="M1279.113 190.857c-15.155 112.913-123.221 131.413-159.147 137.574-66.833 11.435-109.5 20.343-133.956 28.058-3.874 1.212-6.946 4.181-8.38 7.97l-9.438 24.695h16.759c15.275 0 28.57 11.793 29.030 27.119 0.461 15.855-12.186 28.843-27.87 28.843h-39.339l-17.152 44.834h4.625c15.275 0 28.587 11.793 29.030 27.119 0.461 15.838-12.186 28.826-27.87 28.826h-27.17l-11.366 29.679c-8.090 21.146-22.545 38.537-40.926 50.364-2.065 16.879-4.779 85.282 79.633 116.122 14.131 5.171 22.494 20.617 18.005 35.021-4.779 15.241-21.197 23.296-36.028 17.954-90.249-32.495-116.036-102.229-117.999-151.723l-117.333 11.657c-64.546 6.4-122.078 37.154-162.014 86.579-37.82 46.814-55.091 105.148-48.623 164.215 1.519 13.892-2.714 27.238-11.913 37.547-9.455 10.615-23.108 16.691-37.41 16.691-12.22 0-23.842-4.489-32.99-12.663l-348.16-279.637c-48.947-43.674-54.955-117.572-13.705-168.243l71.287-87.569c20.053-24.61 48.674-40.465 80.026-44.971 23.689-3.413 40.67-23.791 38.673-46.49-3.755-42.308 16.333-83.285 49.664-109.466l250.249-196.659c54.357-45.875 123.785-73.643 195.601-78.251l1.024-0.068 312.491 2.782c101.222-6.11 194.014 51.319 225.946 139.776 0 0 22.511 66.406 22.784 68.045 3.106 11.196 4.847 22.955 4.847 35.106 0 0-0.597 7.066-0.887 9.165zM414.925 896.631c-3.789-68.762 17.954-135.851 61.986-190.345 49.374-61.133 120.354-99.157 199.817-107.025l126.071-12.51c18.995-1.877 35.516-14.148 42.052-31.232l3.686-9.609h-36.164c-15.275 0-28.57-11.81-29.030-27.136-0.461-15.838 12.203-28.826 27.87-28.826h58.726l17.135-44.834h-24.013c-15.275 0-28.57-11.81-29.030-27.119-0.461-15.855 12.203-28.843 27.87-28.843h46.575l20.378-53.299c3.106-8.124 8.26-15.292 14.985-20.787 4.198-3.447 8.943-6.161 14.029-8.090 15.735-5.922 41.728-13.158 97.792-23.842-9.762-40.226-47.292-69.956-91.699-69.956h-151.637l-126.635 110.711c-67.157 58.692-165.598 64.939-239.616 16.964l-165.99 161.502c35.106 37.734 55.159 85.692 56.951 137.438 1.997 57.276-18.722 111.445-58.334 153.412l136.226 103.424zM180.087 718.302l53.845 40.892 0.444-0.444c31.795-31.522 48.469-73.062 46.933-116.992-1.314-37.666-15.838-72.653-41.284-100.403l-67.908 66.048c-13.756 13.346-21.743 31.010-22.477 49.732-0.905 23.125 10.462 45.995 30.447 61.167zM1028.915-5.325l-1.024 0.068-312.439-2.782c-59.802 4.045-117.521 27.29-162.628 65.468l-254.686 200.192c-17.715 13.909-27.119 35.652-25.19 58.129 4.506 52.412-33.638 99.26-86.835 106.633-17.425 2.423-33.126 11.247-44.237 24.917l-71.287 87.569c-22.665 27.819-19.405 66.953 7.509 90.948l17.084 15.718c4.062-28.126 17.34-54.153 38.161-74.359l402.483-391.561c83.644-81.391 194.901-126.208 313.259-126.208h295.475c9.899 0 19.541 1.075 28.826 3.055-33.382-38.878-87.091-61.44-144.469-57.788zM1144.559 105.37h-295.458c-102.298 0-202.325 40.243-274.466 110.421l-87.040 84.685c51.78 27.187 116.412 20.599 161.485-18.79l119.962-104.892c14.455-12.629 32.99-19.593 52.156-19.593h142.763c71.663 0 132.284 49.459 146.722 116.036 73.677-12.612 107.742-40.448 113.545-92.894-0.751-41.472-36.198-74.974-79.667-74.974z" />
<glyph unicode="&#xe6c8;" glyph-name="blank" horiz-adv-x="761" d="M285.257 584.192h190.171c17.496 0 31.715 14.014 31.715 31.305s-14.219 31.334-31.715 31.334h-190.171c-17.496 0-31.685-14.043-31.685-31.334s14.16-31.305 31.685-31.305zM697.344 772.14h-127.122c-1.521 104.068-85.87 187.948-189.879 187.948-104.038 0-188.357-83.88-189.879-187.948h-127.122c-34.992 0-63.4-28.087-63.4-62.669v-710.919c0-34.582 28.409-62.64 63.4-62.64h634.002c34.992 0 63.4 28.058 63.4 62.64v710.919c0 34.582-28.409 62.669-63.4 62.669zM380.343 897.419c68.901 0 124.957-55.94 126.479-125.279h-252.957c1.521 69.339 57.578 125.279 126.479 125.279zM697.344-1.419h-634.002v710.89h634.002v-710.89z" />
<glyph unicode="&#xe6c9;" glyph-name="tea" horiz-adv-x="1101" d="M526.143 134.115c0.85-0.348 1.72-0.618 2.608-0.869 2.338-0.638 4.695-0.947 7.033-0.947h0.792c74.965 0.599 145.659 36.864 189.247 97.087 43.684 60.358 55.528 138.51 31.686 209.031-3.613 10.626-13.64 17.775-24.962 17.775h-0.135c-43.8-0.251-86.151-12.655-122.532-34.913-27.976 87.33-93.648 156.073-180.533 188.899-10.626 3.999-22.644 0.831-29.812-7.902-61.054-74.327-82.577-173.829-57.557-266.201 24.982-92.237 93.822-167.743 184.165-201.96zM712.839 402.963c10.839-49.461 0.213-101.801-29.812-143.283-30.044-41.501-76.703-68.338-127.536-74.153-10.839 49.461-0.193 101.801 29.831 143.283 30.044 41.501 76.684 68.338 127.517 74.153zM428.612 553.955c63.546-29.696 111.075-83.717 131.826-150.721 0.444-1.449 1.893-5.603 3.516-10.182 0.618-1.778 1.41-4.057 2.164-6.221-8.52-8.54-16.442-17.814-23.61-27.725-32.478-44.882-47.355-99.56-43.066-153.619-51.915 32.961-90.44 84.238-106.651 144.075-18.954 70.038-5.526 145.080 35.821 204.394zM1074.968 960h-1048.653c-14.529 0-26.315-11.65-26.315-26.025v-151.784c0-14.355 11.786-26.025 26.315-26.025h39.376v-794.16c0-14.336 11.786-26.006 26.315-26.006h917.291c14.529 0 26.296 11.67 26.296 26.025v794.141h39.395c14.529 0 26.296 11.67 26.296 26.025v151.784c0 14.375-11.766 26.025-26.315 26.025zM982.982-11.969h-864.662v768.135h864.662v-768.135zM1048.634 808.235h-996.004v99.734h996.024v-99.734z" />
<glyph unicode="&#xe6ca;" glyph-name="tea-2" horiz-adv-x="973" d="M965.769 423.782c-5.342 5.905-12.971 9.216-20.975 9.216h-159.454l8.175 63.744c1.826 13.892-2.338 27.75-11.401 38.007s-22.409 16.111-36.54 16.111h-698.505c-14.575 0-27.955-6.161-36.693-16.896s-11.998-25.003-9.182-37.888l79.377-471.825c10.701-49.459 59.017-88.218 109.995-88.218h437.982c52.173 0 98.167 40.209 104.772 91.529l14.097 109.875c158.805 14.66 217.207 176.64 225.655 264.721 0.734 7.919-1.911 15.77-7.305 21.623zM694.033 17.63c-2.953-22.938-25.139-42.308-48.435-42.308h-455.049c-24.013 0-66.287 41.079-71.083 63.078l-85.333 477.867h716.8l-56.9-498.637zM750.933 174.933l34.133 221.867h153.6c-13.312-71.799-58.965-195.516-187.733-221.867zM448.358 648.977c14.575-40.397 40.158-48.009 54.084-48.93 0.666-0.034 1.297-0.051 1.929-0.051 14.797 0 27.307 11.418 28.279 26.266 1.007 14.899-9.899 27.887-24.61 29.833-3.601 3.601-10.701 18.21-12.459 44.868-2.782 41.37 8.926 84.207 27.802 101.854 24.508 22.818 28.979 47.309 28.467 63.863-1.519 46.865-43.742 82.825-48.555 86.75-12.049 9.899-29.85 8.175-39.817-3.721-10.001-11.913-8.363-29.645 3.584-39.612 7.117-5.939 27.546-26.999 28.058-45.312 0.137-4.625-0.836-11.827-10.615-20.958-49.323-46.063-54.306-144.521-36.147-194.85zM243.763 648.96c14.575-40.38 40.124-47.991 54.067-48.913 0.649-0.034 1.28-0.051 1.946-0.051 14.797 0 27.273 11.418 28.297 26.266 0.99 14.899-9.865 27.887-24.593 29.833-3.618 3.601-10.735 18.227-12.51 44.902-2.748 41.37 8.96 84.19 27.819 101.82 24.457 22.818 28.962 47.343 28.433 63.863-1.519 46.865-43.725 82.825-48.538 86.75-12.083 9.933-29.969 8.226-39.953-3.755-9.967-12.015-8.26-29.764 3.789-39.663 5.769-4.693 27.358-26.214 27.972-45.124 0.154-4.659-0.785-11.895-10.598-21.060-49.34-46.080-54.306-144.521-36.13-194.867z" />
<glyph unicode="&#xe6cd;" glyph-name="checked-2" horiz-adv-x="811" d="M579.623 786.113l-38.642 57.962h-57.962c0 0 16.307 115.925-77.283 115.925s-77.283-115.925-77.283-115.925h-57.962l-38.642-57.962h-231.849v-850.113h811.472v850.113h-231.849zM734.189 13.283h-656.906v695.547h115.925l-38.642-57.962h502.34l-38.642 57.962h115.925v-695.547zM366.747 245.905l-70.231 152.054h-141.95l141.969-307.355h141.969l218.402 483h-141.969l-148.19-327.699z" />
<glyph unicode="&#xe6ce;" glyph-name="vitamins" horiz-adv-x="688" d="M48.143 790.475c41.266 0 584.597 0 584.597 0s44.689 2.705 44.689 40.685c0 37.964 0 91.549 0 91.549s-2.736 37.292-51.582 37.292c-48.816 0-567.388 0-567.388 0s-48.143 2.048-48.143-40.685c0-42.718 0-91.533 0-91.533s-3.439-37.307 37.827-37.307zM584.597 746.381c-85.282 0-488.31 0-488.31 0s-96.287-12.181-96.287-98.319c0-86.123 0-617.105 0-617.105s3.439-94.942 92.848-94.942c89.409 0 498.627 0 498.627 0s96.287 9.491 96.287 94.942 0 620.498 0 620.498-17.882 94.926-103.164 94.926zM625.847 159.797h-557.071v362.802h557.071v-362.802zM309.493 224.218c0 0 8.253-23.735 41.266-23.735 30.261 0.672 34.388 23.735 34.388 23.735l79.108 196.654c0 0 13.067 29.834-10.332 37.292-23.369 7.458-33.685 0.688-41.25-13.572-11.707-25.768-65.337-166.133-65.337-166.133l-58.475 166.148c0 0-17.882 27.128-44.704 13.572-22.008-8.803-13.755-37.292-13.755-37.292l79.093-196.669z" />
<glyph unicode="&#xe6cf;" glyph-name="female" horiz-adv-x="522" d="M0.251 366.874c-0.031-1.097-0.063-2.194-0.084-3.323-2.121-128.731 60.040-371.973 114.489-427.541h122.211c0.293 32.246 0.773 257.714-0.178 292.624-1.4 51.796-156.296 111.031-236.44 138.24zM416.893 613.992c-35.391 90.321 51.148 304.222 40.615 304.222-5.016 0-91.69 42.663-185.835 41.785-106.12 0-130.863-7.837-195.208-41.785-10.533 0 64.637-213.912 29.247-304.222-39.664-101.23-88.492-118.439-101.992-205.709 91.669-17.262 179.942-22.831 257.578-22.34 77.636-0.491 165.919 5.068 257.578 22.34-13.49 87.27-62.307 104.469-101.982 205.709zM522.449 363.551c-0.021 1.128-0.063 2.226-0.084 3.323-80.144-27.209-235.039-86.444-236.44-138.24-0.951-34.91-0.481-260.378-0.178-292.624h122.201c54.46 55.568 116.611 298.809 114.5 427.541z" />
<glyph unicode="&#xe6d0;" glyph-name="male" horiz-adv-x="1048" d="M1024 764.952c-28.952 35.816-68.571 96.768-121.905 121.905s-91.429 54.101-109.714 60.952-72.387 11.435-85.333 0-45.714-41.143-36.571-60.952 36.571-33.524 73.143-12.19 51.054 21.333 60.952 12.19 57.905-83.054 60.952-97.524 17.53-48.006 12.19-48.762-57.149 3.816-73.143-12.19-15.238-35.816-48.762-36.571-73.911-41.143-97.524-48.762-49.53-19.054-60.952 0-18.286 57.905-12.19 73.143 32.768 70.863 24.381 85.333-12.19 0-12.19 0 6.095 109.714-85.333 109.714-85.333-121.905-85.333-121.905-17.53-0.768-12.19-12.19 35.816-64 36.571-73.143 5.73-58.392-12.19-73.143c-12.958-10.667-14.482-18.286-36.571 0s-41.143 40.387-73.143 36.571-60.952-12.19-60.952-12.19-15.238 40.387-48.762 36.571-48.762 0-48.762 0 10.667 33.524 24.381 73.143 38.863 84.578 48.762 85.333 10.667-3.048 36.571-12.19 76.19-9.143 73.143 12.19-6.095 72.387-36.571 73.143-83.81 7.619-121.905-36.571-134.851-115.054-146.286-134.095-45.714-81.53-36.571-97.524 96.768-95.244 134.095-121.905 110.482-37.339 121.905-36.571 44.958-84.578 60.952-109.714 43.435-130.292 48.762-146.286-3.048-152.381-12.19-207.238-12.19-85.333-12.19-85.333 85.333-12.19 195.048-12.19 195.048 12.19 195.048 12.19-16.762 84.578-24.381 146.286-0.792 132.254 12.19 170.667c18.286 54.101 35.816 153.149 48.762 182.857s36.571 97.524 36.571 97.524 61.72 7.619 97.524 36.571 84.578 96.768 97.524 109.714 41.143 37.327 12.19 73.143z" />
<glyph unicode="&#xe6d1;" glyph-name="waist" horiz-adv-x="1168" d="M180.631 660.585l-105.866 108.216v-48.233h-74.857v-119.926h74.857v-48.233l105.866 108.176zM1146.224 780.485h-246.994c37.468 86.594 84.795 140.958 85.36 141.561 8.192 9.216 7.496 23.526-1.47 31.888-9.019 8.415-22.961 7.719-31.193-1.444-2.468-2.757-59.51-67.44-100.89-172.006h-422.623c-12.196 0-22.095-10.096-22.095-22.581v-289.359c0-12.459 9.899-22.581 22.095-22.581h396.564c14.585-59.983 39.398-118.994 74.949-175.445 7.811-12.275 17.001-27.267 26.493-43.323-107.349-44.19-228.155-68.004-351.101-68.004-0.039 0-0.079 0-0.131 0-127.554 0-252.206 25.613-362.47 72.953 8.35 14.1 16.568 27.294 23.46 38.374 227.827 361.616-49.126 678.807-52.001 681.958-8.218 9.203-22.16 9.807-31.193 1.483-9.019-8.402-9.689-22.659-1.47-31.928 10.568-11.881 256.67-295.109 47.511-627.108-42.824-67.912-122.473-194.416-109.109-338.366 1.063-11.737 10.699-20.427 21.963-20.427 0.709 0 1.418 0 2.114 0.092 12.17 1.103 21.123 12.222 19.889 24.615-8.048 86.541 23.066 167.818 56.464 231.371 116.867-50.99 249.462-78.113 384.761-78.113 0.039 0 0.079 0 0.131 0 130.652 0 259.23 25.547 373.064 73.216 32.322-62.753 61.742-142.1 53.878-226.435-1.116-12.432 7.772-23.46 19.85-24.615 0.801-0.079 1.378-0.079 2.166-0.079 11.264 0 20.887 8.73 21.911 20.414 13.456 144.016-66.271 270.507-109.082 338.471-30.799 48.824-52.723 99.551-66.534 150.974h275.732c12.13 0 22.095 10.122 22.095 22.581v289.398c-0.013 12.446-9.886 22.462-22.095 22.462zM1124.129 491.179h-46.080v92.318c0 12.459-9.977 22.581-22.108 22.581-12.262 0-22.095-10.122-22.095-22.581v-92.318h-61.703v92.318c0 12.459-9.925 22.581-22.095 22.581s-22.095-10.122-22.095-22.581v-92.318h-61.703v92.318c0 12.459-9.938 22.581-22.095 22.581-12.183 0-22.108-10.122-22.108-22.581v-92.318h-61.663v92.318c0 12.459-9.925 22.581-22.108 22.581-12.17 0-22.095-10.122-22.095-22.581v-92.318h-61.611v92.318c0 12.459-9.925 22.581-22.095 22.581s-22.108-10.122-22.108-22.581v-92.318h-61.65v92.318c0 12.459-9.899 22.581-22.095 22.581-12.17 0-22.095-10.122-22.095-22.581v-92.318h-54.101v244.198h673.7v-244.198zM614.61 305.008c0 26.335-20.821 47.629-46.566 47.629-25.758 0-46.671-21.294-46.671-47.629 0-26.283 20.9-47.734 46.671-47.734 25.744 0.013 46.566 21.451 46.566 47.734z" />
<glyph unicode="&#xe6d2;" glyph-name="lifebuoy" d="M512 959.958c-282.645 0-511.937-229.857-511.937-511.937 0-282.060 229.857-511.916 511.937-511.916s511.937 229.857 511.937 511.916c-0.021 282.645-229.313 511.937-511.937 511.937zM862.166 720.468l-148.689-148.689c-18.16 29.508-42.569 54.46-70.949 73.206l148.125 148.125c26.687-21.002 50.531-45.976 71.513-72.641zM680.542 448.021c0-93.080-75.483-168.542-168.563-168.542s-168.563 75.463-168.563 168.542 75.483 168.584 168.563 168.584c93.080 0 168.563-75.504 168.563-168.584zM512 891.852c80.583 0 156.087-21.546 221.351-59.601l-156.651-156.651c-20.438 5.684-42.005 9.091-64.7 9.091-23.845 0-47.104-3.385-69.235-10.198l-156.087 156.087c66.414 39.142 143.026 61.273 225.322 61.273zM229.919 790.831l148.125-148.125c-28.379-19.31-52.224-44.847-69.799-74.919l-148.71 149.253c20.438 27.251 44.283 52.224 70.384 73.791zM127.749 226.691c-38.013 65.285-59.601 140.748-59.601 221.33 0 76.089 19.289 148.146 53.352 210.568l159.493-159.472c-3.406-16.468-5.663-33.499-5.663-51.096 0-22.695 3.406-44.262 9.091-64.7l-156.672-156.63zM166.912 169.368l147.56 148.125c19.289-28.359 44.283-52.767 73.206-70.949l-148.125-148.689c-26.666 21.002-51.639 44.847-72.641 71.513zM512.564 4.211c-78.326 0-151.531 19.874-215.103 55.045l157.78 157.8c0.564 0.564 0.564 1.128 1.149 1.128 18.16-4.535 36.885-6.792 56.174-6.792 17.596 0 34.628 2.257 51.075 5.663l159.493-159.472c-63.007-34.085-134.52-53.373-210.568-53.373zM781.019 95.577l-149.274 149.295c29.508 17.596 55.045 41.42 74.898 69.82l148.146-148.146c-21.567-26.687-46.54-50.531-73.77-70.969zM738.45 378.786c6.813 22.131 10.198 44.847 10.198 69.235 0 19.31-2.257 38.013-6.813 55.609l158.929 158.908c35.192-63.572 55.609-136.777 55.609-214.538-0.564-82.296-22.716-158.908-61.858-225.322l-156.066 156.108z" />
<glyph unicode="&#xe976;" glyph-name="toothpaste" d="M809.55 946.489c-7.672 8.585-18.854 13.511-30.684 13.511h-533.73c-11.833 0-23.019-4.926-30.694-13.514-7.635-8.545-11.279-20.158-9.999-31.849l73.69-732.613c0.496-4.415 1.756-8.879 3.716-13.197 13.626-36.366 62.905-62.461 138.984-73.525-11.112-4.113-17.722-13.002-19.146-25.793l-9.151-99.69c-0.965-8.692 1.768-17.347 7.495-23.748 5.724-6.4 14.028-10.074 22.775-10.074h178.381c8.747 0 17.046 3.672 22.775 10.072 5.729 6.403 8.463 15.058 7.5 23.723l-9.151 99.737c-1.22 10.98-7.964 20.612-18.041 25.77-0.020 0.010-0.042 0.022-0.060 0.032 0.127 0.027 0.259 0.052 0.414 0.072 26.865 3.647 46.981 8.583 69.445 17.038 54.734 20.597 69.275 49.306 71.844 69.786l73.645 732.379c1.282 11.713-2.365 23.331-10.007 31.881zM244.091 918.95c-0.067 0.626 0.045 0.908 0.095 0.963 0.052 0.055 0.319 0.205 0.95 0.205h533.727c0.626 0 0.895-0.147 0.945-0.205 0.052-0.055 0.165-0.337 0.095-0.975l-73.6-731.945c-3.17-23.279-57.467-57.916-194.084-57.916-119.434 0-183.843 28.020-193.139 54.055l-0.776 1.876c-0.412 0.858-0.516 1.332-0.531 1.429l-73.682 732.513zM424.991 366.95h174.021c24.074 0 43.754 19.176 44.57 43.053l36.665 269.764v1.349c0 24.591-20.006 44.597-44.597 44.597h-247.301c-24.591 0-44.597-20.006-44.597-44.597v-1.349l36.67-269.764c0.816-23.88 20.495-43.053 44.57-43.053zM388.348 685.806h247.301c2.307 0 4.228-1.671 4.617-3.869l-36.563-269.044v-1.349c0-2.587-2.108-4.689-4.692-4.689h-174.021c-2.587 0-4.689 2.103-4.689 4.689v1.349l-36.573 269.041c0.392 2.2 2.312 3.871 4.619 3.871z" />
<glyph unicode="&#xe977;" glyph-name="round-test-tube" d="M838.554 593.895c-49.067 64.505-114.965 112.9-191.207 139.129 0 0-2.299 0.755-2.299 4.928 0 20.773 0 83.096 0 83.096h25.377c27.175 0 49.282 22.11 49.282 49.285v40.384c0 27.173-22.107 49.282-49.282 49.282h-316.849c-27.175 0-49.282-22.11-49.282-49.282v-40.384c0-27.175 22.107-49.285 49.282-49.285h25.377c0 0 0-62.738 0-84.723 0-2.646-3.623-3.768-3.623-3.768-76.242-26.234-140.818-74.153-189.888-138.66-54.594-71.769-83.453-157.486-83.453-247.886 0-226.081 183.931-410.012 410.012-410.012s410.012 183.928 410.012 410.012c0 90.397-28.861 176.115-83.458 247.883zM410.256 692.521l14.47 4.242c0 0 3.091 0.875 3.091 5.050 0 22.034 0 125.882 0 163.78 0 2.035-1.759 4.322-5.195 4.322-16.607 0-66.43 0-66.43 0-0.171 0-3.035-0.122-3.035 2.016v36.653c0 2.316 1.28 2.592 2.575 2.592 78.634 0 313.868-0.046 313.868-0.046 1.070 0 1.234-0.77 1.234-1.889v-38.419c0-0.171-0.061-0.909-1.016-0.909 0 0-50.624 0-68.069 0-5.090 0-5.571-3.074-5.571-7.452 0-36.621 0.335-134.92 0-159.277-0.081-5.803 3.36-6.504 3.36-6.504l14.201-4.163c89.309-26.181 162.859-85.786 208.55-162.61 1.559-2.614 2.759-7.902-6.201-7.902h-605.539c-12.625 0-9.571 6.714-7.574 10.023 45.779 75.803 118.793 134.553 207.282 160.494zM512-15.135c-199.136 0-361.145 162.009-361.145 361.142 0 42.453 4.64 75.285 18.653 113.819 0 0 2.558 8.43 9.58 8.43 168.115 0 662.252 0 662.252 0 9.365 0 11.669-4.080 12.373-6.133 12.627-36.77 19.43-75.905 19.43-116.116 0.002-199.133-162.011-361.142-361.142-361.142zM403.703 297.866c0-47.086-38.17-85.256-85.256-85.256s-85.256 38.17-85.256 85.256c0 47.086 38.17 85.256 85.256 85.256s85.256-38.17 85.256-85.256zM530.010 159.911c0-30.822-24.986-55.809-55.809-55.809s-55.809 24.986-55.809 55.809c0 30.822 24.986 55.809 55.809 55.809s55.809-24.986 55.809-55.809z" />
<glyph unicode="&#xe978;" glyph-name="doctor-suitcase" d="M361.044 227.665h66.608c0 0 9.269 1.669 9.269-8.248 0-16.908 0-67.627 0-67.627 0-10.228 8.369-18.596 18.598-18.596h112.97c10.228 0 18.598 8.369 18.598 18.596 0 0 0 50.124 0 66.831 0 7.536 9.969 9.043 9.969 9.043h65.905c10.226 0 18.596 8.369 18.596 18.596v112.975c0 10.224-8.367 18.593-18.596 18.593 0 0-50.695 0-67.593 0-7.141 0-8.281 9.205-8.281 9.205v66.67c0 10.228-8.372 18.598-18.598 18.598h-112.97c-10.228 0-18.598-8.369-18.598-18.598v-67.265c0 0 0.452-8.61-8.177-8.61-16.924 0-67.698 0-67.698 0-10.228 0-18.596-8.369-18.596-18.593v-112.975c-0.002-10.228 8.365-18.596 18.593-18.596zM970.963 709.958c0 0-129.34 0-172.454 0-8.629 0-8.926 7.9-8.926 7.9v137.974c0 21.478-17.474 38.952-38.952 38.952h-477.266c-21.478 0-38.952-17.474-38.952-38.952 0 0 0-103.032 0-137.376 0-8.729-9.774-8.496-9.774-8.496h-171.601c-29.245 0-53.037-23.792-53.037-53.037v-602.671c0-29.243 23.792-53.037 53.037-53.037h917.926c29.245 0 53.037 23.794 53.037 53.037v602.669c0.002 29.245-23.792 53.037-53.037 53.037zM282.022 836.58c0 9.522 7.384 10.595 7.384 10.595h442.652c0 0 9.919-1.769 9.919-10.893 0-25.682 0-93.125 0-117.431 0-5.587-1.19-8.893-10.314-8.893-110.192 0-440.767 0-440.767 0s-8.874-0.231-8.874 7.703c0 29.731 0 87.265 0 118.919zM976.395 54.25c0-2.94-2.487-5.427-5.43-5.427h-917.928c-2.942 0-5.43 2.483-5.43 5.427 0 0 0 370.063 0 493.414 0 5.553 6.639 6.287 6.639 6.287h915.355c0 0 6.794-0.336 6.794-7.179 0-123.135 0-492.521 0-492.521zM963.948 601.558c-226.21 0-904.841 0-904.841 0s-11.5-0.633-11.5 8.591c0 11.695 0 46.774 0 46.774 0 2.942 2.485 5.43 5.43 5.43h917.926c2.942 0 5.43-2.485 5.43-5.43v-46.179c0.002-0.002 0.052-9.186-12.445-9.186z" />
<glyph unicode="&#xe979;" glyph-name="medicine-pill" d="M935.102 871.174c-57.28 57.28-133.44 88.826-214.449 88.826s-157.169-31.546-214.451-88.826l-417.448-417.448c-118.247-118.252-118.247-310.651 0.003-428.903 57.282-57.282 133.442-88.823 214.449-88.823s157.169 31.541 214.451 88.823l417.448 417.448c57.282 57.285 88.828 133.445 88.828 214.451-0.003 81.012-31.549 157.169-88.831 214.451zM489.345 53.136c-49.719-49.724-115.827-77.105-186.142-77.105s-136.425 27.38-186.144 77.105c-102.639 102.639-102.639 269.642 0 372.286l208.724 208.721c0 0 217.521 215.739 220.74 218.228 3.254 2.44 6.636 4.714 9.932 7.064 13.38 9.146 27.291 17.264 41.654 23.914 28.686 13.398 58.916 21.033 87.794 23.179 14.458 0.927 28.548 0.655 42.010-0.763 3.357-0.435 6.677-0.868 9.975-1.296 3.28-0.507 6.506-1.165 9.706-1.736 3.203-0.533 6.334-1.285 9.427-2.043 3.083-0.778 6.173-1.383 9.138-2.345 2.973-0.904 5.917-1.797 8.825-2.681 2.906-0.868 5.694-2.005 8.488-2.975 5.607-1.905 10.884-4.278 16.038-6.48 2.589-1.088 5.031-2.414 7.489-3.584 2.43-1.232 4.88-2.325 7.195-3.62 2.309-1.283 4.586-2.545 6.828-3.787 1.116-0.627 2.22-1.249 3.318-1.866 1.068-0.668 2.133-1.334 3.18-1.992 16.888-10.392 30.486-20.785 41.285-29.692 13.841-11.417 20.729-17.753 25.603-23.363 2.44-2.809 6.647-7.94 5.333-9.281-1.101-1.127-5.456 2.053-11.335 6.562-5.82 4.527-14.141 10.869-25.557 18.278-11.56 7.202-25.906 15.326-43.032 22.656-17.067 7.415-37.063 13.716-59.146 17.357-11.061 1.644-22.592 2.973-34.539 2.947-11.929 0.020-24.203-0.727-36.631-2.673-24.835-3.933-50.188-12.325-74.342-25.178-12.016-6.542-23.824-13.987-35.159-22.449-2.788-2.176-209.451-202.418-220.583-213.796-3.961-4.048-3.746-8.744 1.055-13.544 77.791-77.791 294.877-294.644 332.125-331.853 3.559-3.554 4.368-6.552 0.694-10.246-65.158-65.532-203.946-203.946-203.946-203.946z" />
<glyph unicode="&#xe97a;" glyph-name="clipboard-with-check-marks" d="M801.479 625.129h-356.66c-13.333 0-24.14-10.808-24.14-24.14s10.808-24.14 24.14-24.14h356.66c13.333 0 24.14 10.808 24.14 24.14s-10.805 24.14-24.14 24.14zM207.264 594.044l47.906-39.034c5.791-4.715 12.966-7.059 20.14-7.059 7.5 0 14.998 2.566 20.905 7.672l67.633 58.496c10.083 8.722 11.189 23.966 2.467 34.050-8.719 10.086-23.966 11.189-34.050 2.467l-57.251-49.516-37.253 30.356c-10.337 8.422-25.543 6.868-33.963-3.467-8.422-10.337-6.87-25.543 3.464-33.965zM801.479 407.311h-356.66c-13.333 0-24.14-10.808-24.14-24.14s10.808-24.14 24.14-24.14h356.66c13.333 0 24.14 10.808 24.14 24.14s-10.805 24.14-24.14 24.14zM332.266 432.812l-57.251-49.516-37.253 30.354c-10.337 8.422-25.543 6.87-33.963-3.467-8.422-10.337-6.87-25.545 3.467-33.963l47.896-39.027c5.791-4.719 12.97-7.068 20.15-7.068 7.498 0 14.996 2.564 20.908 7.672l67.633 58.496c10.083 8.722 11.187 23.969 2.465 34.050-8.722 10.091-23.964 11.194-34.052 2.47zM801.479 189.492h-356.66c-13.333 0-24.14-10.81-24.14-24.14 0-13.333 10.808-24.14 24.14-24.14h356.66c13.333 0 24.14 10.808 24.14 24.14s-10.805 24.14-24.14 24.14zM332.266 214.994l-57.251-49.514-37.253 30.354c-10.337 8.425-25.543 6.873-33.963-3.467-8.42-10.334-6.87-25.543 3.467-33.96l47.901-39.030c5.791-4.719 12.97-7.068 20.147-7.068 7.5 0 14.998 2.564 20.903 7.677l67.633 58.491c10.083 8.722 11.189 23.966 2.467 34.050-8.722 10.086-23.966 11.191-34.052 2.467zM854.766 879.882c0 0-86.204 0-114.938 0-6.035 0-5.656 6.856-5.656 6.856v20.28c0 29.214-23.768 52.983-52.983 52.983h-338.383c-29.214 0-52.983-23.768-52.983-52.983v-21.185c0 0 0.497-5.951-6.141-5.951-28.613 0-114.453 0-114.453 0-34.515 0-62.595-28.080-62.595-62.598v-818.691c0-34.518 28.080-62.595 62.595-62.595h685.539c34.515 0 62.598 28.077 62.598 62.595v818.691c-0.005 34.518-28.085 62.598-62.6 62.598zM338.101 907.017c0 2.549 2.153 4.702 4.702 4.702h338.383c2.549 0 4.702-2.153 4.702-4.702v-97.765c0-2.549-2.156-4.702-4.702-4.702h-338.381c-2.549 0-4.702 2.153-4.702 4.702v70.629l-0.002 27.136zM869.081-1.407c0-7.756-6.556-14.315-14.317-14.315h-685.537c-7.759 0-14.315 6.554-14.315 14.315v818.691c0 7.761 6.554 14.317 14.315 14.317 0 0 87.575 0 116.768 0 4.425 0 3.826-4.007 3.826-4.007v-18.344c0-12.196 4.152-23.433 11.104-32.396 7.022-9.055 16.903-15.785 28.285-18.81 0.459-0.121 0.922-0.229 1.386-0.34 3.068-0.727 6.235-1.202 9.485-1.366 0.903-0.046 1.811-0.070 2.723-0.070h338.383c3.652 0 7.218 0.372 10.663 1.079 3.447 0.707 6.771 1.75 9.938 3.092 0.792 0.336 1.574 0.69 2.346 1.062 17.753 8.567 30.033 26.752 30.033 47.749v17.89c0 0 0.024 4.461 5.154 4.461 28.862 0 115.443 0 115.443 0 7.761 0 14.317-6.556 14.317-14.317v-818.691z" />
</font>
</defs>
</svg>
